Пропавшие без вести / Сезон: 1 / 1-13 серии из 40 (Кира Мещерякова, Максим Дашкин, Роман Трофимов и др.) [2013 г., Приключенческий детектив, социальная драма, мелодрама, мистика, SATRip]

Ответить на тему
 
Автор
Сообщение

awk05 ®

Пол:

Стаж: 4 года 5 месяцев

Сообщений: 1352

Репутация: 275 [+] [-]

Откуда: Западная Украина Ривне

Пост 13-Янв-2014 20:23

[Цитировать] 

-Пропавшие без вести-- Год выпуска: 2013 г.
Страна: Россия, Мир реалити продакшн
Жанр: Приключенческий детектив, социальная драма, мелодрама, мистика
Сезон/Серия: Сезон:1 /1-13 серии из 40
Продолжительность: 13 x ~ 00:46:36
Субтитры: отсутствуют--Режиссер: Кира Мещерякова, Максим Дашкин, Роман Трофимов, Игорь Михайлусь, Ольга Дарфи (Пигалева), Дмитрий Магонов, Наталья Новик, Ирина Волкова (IV), Оксана Карас, Вячеслав Златопольский, Сергей Пищиков, Михаил Кукушкин, Анна Фенченко, Олеся Кустова--В ролях: Станислав Николаев, Мария Аниканова, Артем Денке, Наталья Земцова, Игорь Стам, Даниил Белых, Борис Каморзин, Кирилл Гребенщиков, Артём Федотов, Наталья Людскова, Вероника Корниенко, Александр Солдаткин, Лада Аукштыкальнис, Елена Фёдорова, Валерий Новиков, Алиса Ярмолюк, Владимир Чуприков, Сергей Климков, Константин Пояркин, Александр Чевычелов, Анастасия Немец, Нина Ракова, Георгий Мушеев, Сергей Галахов--Описание: Сериал "Пропавшие без вести" - это прежде всего приключенческий детектив, но еще и социальная драма, и мелодрама, и мистери. Ведь специальный отдел СК занимается поиском не очередных преступников, а идет по следу пропавшего при загадочных обстоятельствах человека. Чтобы найти его, нужно влезть в его жизнь, узнать самые интимные и порой нелицеприятные подробности. Каждая история полна "скелетов в шкафу" и неожиданных поворотов судьбы. Кто ждет следователей в конце пути, тоже не ясно. Это может быть и невинная жертва, и вероломный злодей.--Качество: SATRip
Формат: AVI
Видео кодек:: DivX
Аудио кодек:: MP3
Видео: 704х384 , 16:9 , 25.000 fps , ~1439 kbps avg , 0.213 bit/pixel
Аудио: 2 канала , 48 kHz , 128 kbps avg

Список серий

01. Клубные игры
02. Любительская камера
03. Парень с ружьем
04. Органы на продажу
05. Певица
06. Месть
07. Гамбит
08. Обманутые надежды
09. Отель
10. Семейные ценности
11. Старые долги
12. Вопрос жизни и смерти
13. Попутного ветра

MediaInfo

General
Complete name : E:\Сериалы новые\Propavshie.bez.vesti.2013.SATRip\Propavshie.bez.vesti.(01.seriya).2013.SATRip.Alexey724.avi
Format : AVI
Format/Info : Audio Video Interleave
File size : 547 MiB
Duration : 46mn 36s
Overall bit rate : 1 641 Kbps
Writing library : TMPGEnc 4.0 XPress Version. 4.7.7.307
Video
ID : 0
Format : MPEG-4 Visual
Format settings, BVOP : 1
Format settings, QPel : No
Format settings, GMC : No warppoints
Format settings, Matrix : Default (H.263)
Muxing mode : Packed bitstream
Codec ID : DX50
Codec ID/Hint : DivX 5
Duration : 46mn 36s
Bit rate : 1 439 Kbps
Width : 704 pixels
Height : 384 pixels
Display aspect ratio : 1.85:1
Frame rate : 25.000 fps
Color space : YUV
Chroma subsampling : 4:2:0
Bit depth : 8 bits
Scan type : Progressive
Compression mode : Lossy
Bits/(Pixel*Frame) : 0.213
Stream size : 480 MiB (88%)
Writing library : DivX 6.8.5 (UTC 2009-08-20)
Audio
ID : 1
Format : MPEG Audio
Format version : Version 1
Format profile : Layer 3
Mode : Joint stereo
Mode extension : MS Stereo
Codec ID : 55
Codec ID/Hint : MP3
Duration : 46mn 36s
Bit rate mode : Constant
Bit rate : 128 Kbps
Channel count : 2 channels
Sampling rate : 48.0 KHz
Compression mode : Lossy
Stream size : 42.7 MiB (8%)
Alignment : Aligned on interleaves

_________________
[Торрент-статистика]
[Профиль]  [ЛС] 
Показать сообщения:    
Ответить на тему

Текущее время: Сегодня 06:27

Часовой пояс: GMT + 4



Вы не можете начинать темы
Вы не можете отвечать на сообщения
Вы не можете редактировать свои сообщения
Вы не можете удалять свои сообщения
Вы не можете голосовать в опросах
Вы не можете прикреплять файлы к сообщениям
Вы не можете скачивать файлы