Корабль / Сезон: 1 / Серии: 1-26 из 26 (Олег Асадулин, Марк Горобец) [2014 г., мистический триллер, фантастика, приключения, мелодрама, постапокалиптика, WEB-DLRip 400p]

Ответить на тему
 
Автор
Сообщение

awk05 ®

Пол:

Стаж: 4 года 5 месяцев

Сообщений: 1352

Репутация: 275 [+] [-]

Откуда: Западная Украина Ривне

Пост 13-Янв-2014 19:12

[Цитировать] 

--Корабль -- Год выпуска: 2014 г.
Страна: Россия, «Yellow, Black and White», при участии кинокомпании «Мэйнстрим фильм» и телеканала «Ю».
Жанр: Мистический триллер, фантастика, приключения, мелодрама, постапокалиптика
Сезон/Серия: Сезон 1/ Серии 1-26 из 26
Продолжительность: 26 х 00:46:30
Cубтитры: нет--Режиссер: Олег Асадулин, Марк Горобец--В ролях: Дмитрий Певцов, Илья Любимов, Юлия Агафонова, Агриппина Стеклова, Владимир Виноградов, Ингрид Олеринская, Матвей Зубалевич, Сергей Друзьяк, Александр Пугачёв (II), Илья Иосифов, Ярослава Базаева, Дмитрий Горевой, Ирина Антоненко, Мария Малиновская, Роман Курцын, Руслан Садковский, Вячеслав Бондарчук, Анастасия Сорокина, Фёдор Сухов, Дарья Храмцова--Описание: Что может быть лучше путешествия на настоящем паруснике? Бескрайнее море, солнце, романтика, будет, о чем рассказать друзьям. На это рассчитывали двадцать курсантов, поднявшись на борт учебного парусного судна «Бегущая по волнам». Но беззаботный отдых длился недолго. Взрыв адронного коллайдера приводит к глобальной катастрофе, в результате которой все материки ушли под воду. Возможно, единственными выжившими людьми на планете оказались пассажиры «Бегущей по волнам». Корабль становится их единственным домом. Правила жизни меняются. Никто не знает, что будет завтра. корабль--Качество: WEB-DLRip
Формат видео: AVI
Видео кодек: xvid
Аудио кодек: MP3
Видео: 720x400, (16:9), 25,000 кадров/сек, ~ 1643 Кбит/с, 0.228 Bits/(Pixel*Frame)
Аудио: 2 channels, 48.0 KHz, 192 Кбит/с-- --

MediaInfo

Общее
Полное имя : D:\раздачи\Korabl.2014.WEB-DLRip.от HitWay\Korabl.(01.seriya).2014.XviD.WEB-DLRip.Alexey724.avi
Формат : AVI
Формат/Информация : Audio Video Interleave
Размер файла : 644 Мбайт
Продолжительность : 48 м.
Общий поток : 1844 Кбит/сек
Программа кодирования : VirtualDubModRus 1.5.10.2 (build 2542/release)
Библиотека кодирования : VirtualDubMod build 2542/release
Видео
Идентификатор : 0
Формат : xvid
Идентификатор кодека : xvid
Продолжительность : 48 м.
Битрейт : 1643 Кбит/сек
Ширина : 720 пикселей
Высота : 400 пикселей
Соотношение сторон : 16:9
Частота кадров : 25,000 кадров/сек
Бит/(Пиксели*Кадры) : 0.228
Размер потока : 574 Мбайт (89%)
Аудио
Идентификатор : 1
Формат : MPEG Audio
Версия формата : Version 1
Профиль формата : Layer 3
Режим : Joint stereo
Расширение режима : MS Stereo
Идентификатор кодека : 55
Идентификатор кодека/Подсказка : MP3
Продолжительность : 48 м.
Вид битрейта : Постоянный
Битрейт : 192 Кбит/сек
Каналы : 2 канала
Частота : 48,0 КГц
Метод сжатия : С потерями
Задержка видео : 8 мс.
Размер потока : 67,1 Мбайт (10%)
Выравнивание : Разделение по промежуткам
Продолжительность промежутка : 40 мс. (1,00 видеокадр)
Время предзагрузки промежутка : 500 мс.

Внимание!: Раздача ведётся путём добавления новых серий

Внимание! Раздача ведётся путём добавления новых серий; при каждом добавлении создётся новый торрент. Чтобы начать докачку новой серии, пользователям необходимо сделать следующее:
(1) остановить скачивание,
(2) удалить старый торрент у себя из клиента (старые серии удалять не надо),
(3) скачать новый торрент и запустить его у себя в клиенте вместо старого, при этом указать клиенту путь в старую папку куда и должно происходить скачивание новых серий.
Ваш клиент при этом должен произвести хеширование (проверку) старой папки (если не производит сам - помогите ему сделать это), и будет докачивать только те серии которых у вас ещё нет. Старые серии при этом не удаляются, а продолжают раздаваться!
Eсли вы уже удалили старые серии, то предотвратить повторную закачку старых серий можно, отжав галочку в соответсвующих местах при запуске нового торрента. По возможности, желательно не удалять старые серии как можно дольше чтобы релизёр не столько продолжал раздавать старые серии, а смог сконцентрироваться на новых.

_________________


Последний раз редактировалось: awk05 (2014-02-21 17:21), всего редактировалось 21 раз(а)
[Торрент-статистика]
[Профиль]  [ЛС] 

sergei78

Пол:

Стаж: 3 года 2 месяца

Сообщений: 92

Репутация: 120 [+] [-]

Откуда: Бывший СССР: "Связист Кстово 100/40"

Пост 15-Янв-2014 12:06 (спустя 1 день 16 часов)

[Цитировать] 

Сериал наверное наподобие Ковчега?
[Торрент-статистика]
[Профиль]  [ЛС] 

sota767

Пол:

Стаж: 4 года 7 месяцев

Сообщений: 339

Репутация: 223 [+] [-]

Откуда: Нижний Новгород

Пост 15-Янв-2014 12:13 (спустя 6 минут)

[Цитировать] 

41614Сериал наверное наподобие Ковчега?
Не наподобие, а именно он и есть. Права закупили, адаптировали под нас и вперед. Т.е. то же, что и с "Закрытой школой".
"Черная лагуна" у меня не пошла, а "Закрытую школу" посмотрела с удовольствием. Тоже самое и с "Ковчегом", несколько раз принималась смотреть, но так и не пошел, даже под вязание. Корабль пока смотрю, но исключительно под вязание)))

_________________
Когда- то я была ангелом...Потом потеряла крылья и пересела на метлу...А что? И скорость повыше и тюнинг в перспективе.
причиняю пользу, наношу добро
[Торрент-статистика]
[Профиль]  [ЛС] 

sergei78

Пол:

Стаж: 3 года 2 месяца

Сообщений: 92

Репутация: 120 [+] [-]

Откуда: Бывший СССР: "Связист Кстово 100/40"

Пост 15-Янв-2014 12:35 (спустя 22 минуты)

[Цитировать] 

41616
41614Сериал наверное наподобие Ковчега?
Не наподобие, а именно он и есть. Права закупили, адаптировали под нас и вперед. Т.е. то же, что и с "Закрытой школой".
"Черная лагуна" у меня не пошла, а "Закрытую школу" посмотрела с удовольствием. Тоже самое и с "Ковчегом", несколько раз принималась смотреть, но так и не пошел, даже под вязание. Корабль пока смотрю, но исключительно под вязание)))
спасибо что ответила.
Понял, глядеть и качать не буду.
[Торрент-статистика]
[Профиль]  [ЛС] 

evb

Стаж: 4 года 3 месяца

Сообщений: 1

Репутация: 0 [+] [-]

Пост 14-Фев-2014 12:18 (спустя 29 дней)

[Цитировать] 

Размеры и имена файлов 1-17 изменились. Это нормально?
[Торрент-статистика]
[Профиль]  [ЛС] 

ArtZak

Пол:

Стаж: 5 лет 1 месяц

Сообщений: 3008

Репутация: 1363 [+] [-]

Откуда: Россия

Пост 14-Фев-2014 19:03 (спустя 6 часов)

[Цитировать] 

43413Размеры и имена файлов 1-17 изменились. Это нормально?
Нормально, если релизер первоначальную свою концепцию релиза изменил (допустим добавил дополнительную аудиудорогу, сабы и т. д.).
[Торрент-статистика]
[Профиль]  [ЛС] 

Dadhi

Стаж: 4 года 11 месяцев

Сообщений: 38

Репутация: 38 [+] [-]

Пост 25-Фев-2014 00:36 (спустя 10 дней)

[Цитировать] 

а второй сезон? .. чего слышно?
[Торрент-статистика]
[Профиль]  [ЛС] 
Показать сообщения:    
Ответить на тему

Текущее время: Сегодня 16:44

Часовой пояс: GMT + 4



Вы не можете начинать темы
Вы не можете отвечать на сообщения
Вы не можете редактировать свои сообщения
Вы не можете удалять свои сообщения
Вы не можете голосовать в опросах
Вы не можете прикреплять файлы к сообщениям
Вы не можете скачивать файлы