Из жизни капитана Черняева / Сезон: 1 / Серии: 1-12 из 12 (Максим Кубринский) [2009 г., Боевик, криминал, детектив , DVDRip]

Ответить на тему
 
Автор
Сообщение

awk05 ®

Пол:

Стаж: 4 года 5 месяцев

Сообщений: 1352

Репутация: 275 [+] [-]

Откуда: Западная Украина Ривне

Пост 04-Янв-2014 22:28

[Цитировать] 

-- Из жизни капитана Черняева -- Год выпуска: 2009
Страна: Россия, ООО «Центр кинопроизводства», ООО «Форвард-Фильм» по заказу НТВ
Жанр: Боевик, криминал, детектив
Сезон/Серия: Сезон: 1 Серии: 1-12 из 12
Продолжительность: 12 х ~ 00:46:34
Субтитры: нет--Режиссёр: Максим Кубринский--В ролях: Сергей Ланбамин, Петр Баранчеев, Сергей Колешня, Анастасия Панина, Петр Кудряшов, Игорь Климов, Сергей Комаров, Сергей Лавыгин, Роман Синицын, Александр Баринов, Юлия Жигалина, Сергей Крысанов, Сергей Неудачин, Владимир Николенко, Андрей Перунов, Елена Ташаева, Андрей Терехов, Александр Аблязов, Егор Баринов, Николай Качура, Марина Орлова, Андрей Хворов, Елен Цай--Описание: "Многосерийный детектив по мотивам произведений Владимира Колычева.
Главный герой сериала — обаятельный и остроумный оперативник Тимофей Черняев. Он нравится женщинам и вызывает головную боль у начальства. Тимофей азартен, стиль его поведения — действие прежде всего! Зачастую Черняев поступает неоднозначно, но он фанатично предан делу, которым занят, и все делает от души. Молодой капитан пока одинок, как говорится, находится в поиске. Иногда этот «поиск» заводит его в тупик, но выводов из этого Черняев не делает и снова бросается в любовные авантюры.
Тимофей — верный друг: несколько лет он проработал с одним напарником, старшим лейтенантом Димой Якушевым. Когда Якушев погиб, Тимофей приложил все силы, чтобы отомстить за друга. Вместе с новым напарником — Иваном Куликом — Черняеву предстоит выяснить, кто стоит за таинственными убийствами бизнесменов, оправдать убийцу-рецидивиста, вывести на чистую воду хитроумную мошенницу, противостоять коррумпированному милицейскому начальнику, разоблачить элитный клуб самоубийц и еще немало сложных и рискованных дел."--Качество: DVDRip
Формат: AVI
Видео кодек:: XviD
Аудио кодек:: MP3
Видео: 704х400 , 16:9 , 25.000 fps , ~905 kbps avg , 0.128 bit/pixel
Аудио 1: 2 channels , 48 kHz , 128 kbps avg-- --

MediaInfo

General
Complete name : E:\Сериалы новые\Из жизни капитана Черняева\01.avi
Format : AVI
Format/Info : Audio Video Interleave
File size : 361 MiB
Duration : 46mn 34s
Overall bit rate : 1 084 Kbps
Writing library : VirtualDub-MPEG2 build 24600/release
Video
ID : 0
Format : MPEG-4 Visual
Format profile : Advanced Simple@L2
Format settings, BVOP : 2
Format settings, QPel : No
Format settings, GMC : No warppoints
Format settings, Matrix : Default (H.263)
Muxing mode : Packed bitstream
Codec ID : XVID
Codec ID/Hint : XviD
Duration : 46mn 34s
Bit rate : 905 Kbps
Width : 704 pixels
Height : 400 pixels
Display aspect ratio : 16:9
Frame rate : 25.000 fps
Color space : YUV
Chroma subsampling : 4:2:0
Bit depth : 8 bits
Scan type : Progressive
Compression mode : Lossy
Bits/(Pixel*Frame) : 0.128
Stream size : 301 MiB (83%)
Writing library : XviD 1.2.1 (UTC 2008-12-04)
Audio
ID : 1
Format : MPEG Audio
Format version : Version 1
Format profile : Layer 3
Mode : Joint stereo
Mode extension : MS Stereo
Codec ID : 55
Codec ID/Hint : MP3
Duration : 46mn 34s
Bit rate mode : Constant
Bit rate : 128 Kbps
Channel count : 2 channels
Sampling rate : 48.0 KHz
Compression mode : Lossy
Stream size : 42.6 MiB (12%)
Alignment : Split accross interleaves

Список серий

"Фильм первый ""Отпуск в январе"" (1-4 серии)
Помогая популярной красавице-журналистке Анжеле избавиться от поклонников, Тимофей берёт её телефон с целью продолжить знакомство. В ресторане ""Богема"" двумя выстрелами (в сердце и в пах) убит бизнесмен Семён Колесников, который должен был встретиться с любовницей Мариной. Следует новое убийство. На этот раз в салоне красоты ""Здоровье поколения"". Это опять бизнесмен - Эдуард Гинзбург. Опять два выстрела, и опять в сердце и в пах. Черняеву и Якушеву удаётся установить, что любовница Колесникова Марина была одновременно любовницей и Гинзбурга. Марина, красивая молодая женщина дала признательные показания. Сказала, что приехала в Москву из Тамбова, чтобы стать моделью. В модельном агентстве её обманули и выставили большой счёт, который она оплатить не могла. У неё отобрали паспорт, и ей пришлось идти ""на панель"", чтобы отработать долг...
Фильм второй ""Без суда и следствия"" (5-8 серии)
Тимофей Черняев получил срочный приказ от начальства: найти кулика и прибыть в отдел. Выяснилось, что убит зам. директора фирмы ""Дженерал престиж"" Никита Проклов. Киллер ""засветился"" на камере слежения, но черты его лица разобрать невозможно. Дворничиха сказала, что убийца уехал на машине, за рулём которой была девушка. Первый разговор с директором фирмы Олегом Сомовым ничего не дал. Одна из молодых сотрудниц фирмы Лия Рамзанова дала Ивану и Тимофею наводку на бывшего бандита, члена Ореховской ОПГ Савелия Скворцова, жену которого Оксану приняли на работу в ""Дженерал престиж"". При приёме на работу Проклов потребовал от Оксаны сексуальных услуг, за что был сильно избит Скворцовым. А Оксана уволилась. У Скворцовых провели обыск и нашли пистолет с глушителем, из которого был убит Проклов."
Фильм третий: ""На кону жизнь"" (9-12 серии).

_________________
[Торрент-статистика]
[Профиль]  [ЛС] 
Показать сообщения:    
Ответить на тему

Текущее время: Сегодня 09:00

Часовой пояс: GMT + 4



Вы не можете начинать темы
Вы не можете отвечать на сообщения
Вы не можете редактировать свои сообщения
Вы не можете удалять свои сообщения
Вы не можете голосовать в опросах
Вы не можете прикреплять файлы к сообщениям
Вы не можете скачивать файлы