Особенности национальной маршрутки / Сезон: 1 / серии 1-4 из 4 (Петр Степин) [2013 г., комедия, мелодрама, SATRip]

Ответить на тему
 
Автор
Сообщение

awk05 ®

Пол:

Стаж: 4 года 5 месяцев

Сообщений: 1352

Репутация: 275 [+] [-]

Откуда: Западная Украина Ривне

Пост 03-Янв-2014 02:05

[Цитировать] 

--Особенности национальной маршрутки
Год выпуска: 2013 г.
Страна: Россия
Жанр: комедия, мелодрама
Сезон/Серия: Сезон: 1 / серии 1-4 из 4
Продолжительность: 4 х ~ 00:43:51
Cубтитры: нет--Режиссер: Петр Степин--В ролях: Иван Стебунов, Ульяна Лаптева, Кристина Пакарина,Татьяна Орлова, Максим Самарский, Екатерина Федулова, Евгений Леонов-Гладышев, Василий Мищенко, Екатерина Копанова, Алеся Пуховая, Иван Федотов, Вячеслав Гришечкин, Татьяна Орлова, Виталий Максимов, Владимир Дубровский (II), Алексей Коваль, Игорь Юртаев, Вячеслав Глушков, Сергей Померанцев, Денис Ясик, Николай Лунин (II), Иван Руденко, Александр Числов, Софья Елфимова--Описание: Кошмар в явь современного человека - это добраться до места на маршрутке. Тебя ласково прижмут к стеклу макияжем, вытащат носовой платок с заначкой, так еще и вспомнят твою маму, нарисуют точный портрет с эпитетами. Такого праздника врагу не пожелаешь в период проигрыша. Сельский люд с авоськами, а то и козами, городские, обозленные на все, что дышит, школьники рвут чулки дамам молниями и липучками от портфелей, с тыла крики "Остановите!", и начинается тестомешалка с присыпками мата и специями тычков в спину. Сумрак не вечен, бывает и в маршрутке солнечно. Радушные пассажиры, неожиданные встречи, даже любовь. Дорога извилиста, асфальт скребет покрышки, все до курьезов смешно. Водитель вообще отдельный разговор: говорит на непонятном диалекте, это особенности национальности или усталость, настроение, как у беременной, непредсказуемые гормоны прыгают вместе с переполненным салоном маршрутки. Небольшой автобус с начинкой из шуток, злости, радости и слез мчится, игнорируя светофоры и ямы по необъятным просторам улиц.--Качество: SATRip
Формат видео: AVI
Видео кодек: DivX
Аудио кодек: MP3
Видео: 704x384 (1.85:1), 25.000 fps, DivX ~1851 kbps avg, 0.27 bit/pixel
Аудио: 2 channels, 48 kHz, ~128.00 kbps avg--

MI

General
Complete name : E:\Сериалы новые\Osobennosti.nacionalnoj.marshrutky.2013.DivX.SATRip\Osobennosti.nacionalnoj.marshrutky.(1.serija.iz.4).2013.DivX.SATRip.avi
Format : AVI
Format/Info : Audio Video Interleave
File size : 624 MiB
Duration : 43mn 51s
Overall bit rate : 1 989 Kbps
Writing library : Boilsoft AVI tool build 1/release
Video
ID : 0
Format : MPEG-4 Visual
Format settings, BVOP : 1
Format settings, QPel : No
Format settings, GMC : No warppoints
Format settings, Matrix : Default (H.263)
Muxing mode : Packed bitstream
Codec ID : DX50
Codec ID/Hint : DivX 5
Duration : 43mn 51s
Bit rate : 1 851 Kbps
Width : 704 pixels
Height : 384 pixels
Display aspect ratio : 1.85:1
Frame rate : 25.000 fps
Color space : YUV
Chroma subsampling : 4:2:0
Bit depth : 8 bits
Scan type : Progressive
Compression mode : Lossy
Bits/(Pixel*Frame) : 0.274
Stream size : 581 MiB (93%)
Writing library : DivX 6.8.5 (UTC 2009-08-20)
Audio
ID : 1
Format : MPEG Audio
Format version : Version 1
Format profile : Layer 3
Mode : Joint stereo
Mode extension : MS Stereo
Codec ID : 55
Codec ID/Hint : MP3
Duration : 43mn 51s
Bit rate mode : Constant
Bit rate : 128 Kbps
Channel count : 2 channels
Sampling rate : 48.0 KHz
Compression mode : Lossy
Stream size : 40.2 MiB (6%)
Alignment : Split accross interleaves
Interleave, duration : 40 ms (1.00 video frame)
Interleave, preload duration : 500 ms

Скриншоты


_________________
[Торрент-статистика]
[Профиль]  [ЛС] 
Показать сообщения:    
Ответить на тему

Текущее время: Сегодня 19:42

Часовой пояс: GMT + 4



Вы не можете начинать темы
Вы не можете отвечать на сообщения
Вы не можете редактировать свои сообщения
Вы не можете удалять свои сообщения
Вы не можете голосовать в опросах
Вы не можете прикреплять файлы к сообщениям
Вы не можете скачивать файлы