Шериф / Сезон: 2 / Серия 1-16 из 16 (Каринэ Фолиянц) [2012 г., Детектив , SatRip]

Ответить на тему
 
Автор
Сообщение

awk05 ®

Пол:

Стаж: 4 года 5 месяцев

Сообщений: 1352

Репутация: 275 [+] [-]

Откуда: Западная Украина Ривне

Пост 30-Дек-2013 22:07

[Цитировать] 

-- Шериф -- Год выпуска: 2012
Страна: Россия, ООО "Центр кинопроизводства" по заказу Форвард-Фильм
Жанр: Детектив
Сезон/Серия: Сезон: 2 Серия 1-16 из 16
Продолжительность: 16 х ~ 00:46:08
Субтитры: нет--Режиссёр: Каринэ Фолиянц--В ролях: Николай Добрынин, Анастасия Бухарцева, Фархад Махмудов, Денис Васильев, Владимир Хайцев, Полина Фокина, Елена Калинина (IV), Валерий Иваков, Михаил Богдасаров, Антон Шурцов, Виктор Мютников, Владимир Зайцев, Олег Комаров (II), Виталий Кудрявцев, Андрей Белозеров, Иннокентий Тарабара, Ульяна Похлебаева, Владимир Царулков, Софья Мицкевич, Елена Махова, Валентин Терехов--Описание: Главный герой – московский опер Василий Шаронов по прозвищу Шериф продолжает «прогибать» под себя этот мир, не вписываясь в «систему». Пусть этот мир и не самый лучший, но в нем должны быть люди, которые добиваются справедливости несмотря ни на что. И пусть коллеги шепчутся за его спиной, ругая за несносный характер, пусть из дома выгнала жена, и с сыном общий язык так и не находится, но, как говорится, «талант не пропьешь», и все равно все обращаются к несносному Шерифу, когда не могут раскрыть очередное запутанное дело. Восемь громких убийств, которые по горячим следам раскрывает уверенный в себе и жесткий Шаронов, – это далеко не предел для Шерифа и его команды: старшего лейтенанта Заура Хетагурова, младшего лейтенанта Юрия Климчика и новичка Субботина, которому предстоит съесть не один пуд соли, прежде чем понять, что значит быть подчиненным Шерифа. Но несмотря на все сложности профессии, за маской ироничного циника и дотошного опера Шаронова скрывается человек, не лишенный простых человеческих чувств.--Качество: SatRip
Формат: AVI
Видео кодек:: XviD
Аудио кодек:: MP3
Видео: 704х416 , 1:69:1 , 25.000 fps , ~1468 kbps avg , 0.200 bit/pixel
Аудио : 2 channels , 48 kHz , 192 kbps avg-- --

MediaInfo

General
Complete name : E:\Сериалы новые\Шериф 2\1-я Серия.avi
Format : AVI
Format/Info : Audio Video Interleave
File size : 550 MiB
Duration : 46mn 8s
Overall bit rate : 1 667 Kbps
Writing application : VirtualDubMod 1.5.4.1 (build 2178/release)
Writing library : VirtualDubMod build 2178/release
Video
ID : 0
Format : MPEG-4 Visual
Format profile : Advanced Simple@L5
Format settings, BVOP : 1
Format settings, QPel : No
Format settings, GMC : No warppoints
Format settings, Matrix : Custom
Codec ID : XVID
Codec ID/Hint : XviD
Duration : 46mn 8s
Bit rate : 1 468 Kbps
Width : 704 pixels
Height : 416 pixels
Display aspect ratio : 1.692
Frame rate : 25.000 fps
Color space : YUV
Chroma subsampling : 4:2:0
Bit depth : 8 bits
Scan type : Progressive
Compression mode : Lossy
Bits/(Pixel*Frame) : 0.200
Stream size : 484 MiB (88%)
Writing library : XviD 64
Audio
ID : 1
Format : MPEG Audio
Format version : Version 1
Format profile : Layer 3
Mode : Joint stereo
Mode extension : MS Stereo
Codec ID : 55
Codec ID/Hint : MP3
Duration : 46mn 8s
Bit rate mode : Constant
Bit rate : 192 Kbps
Channel count : 2 channels
Sampling rate : 48.0 KHz
Compression mode : Lossy
Stream size : 63.4 MiB (12%)
Alignment : Aligned on interleaves
Interleave, duration : 80 ms (2.00 video frames)
Interleave, preload duration : 504 ms
Writing library : LAME3.97
Encoding settings : -m j -V 4 -q 2 -lowpass 18.6 -b 192

_________________
[Торрент-статистика]
[Профиль]  [ЛС] 
Показать сообщения:    
Ответить на тему

Текущее время: Сегодня 06:25

Часовой пояс: GMT + 4



Вы не можете начинать темы
Вы не можете отвечать на сообщения
Вы не можете редактировать свои сообщения
Вы не можете удалять свои сообщения
Вы не можете голосовать в опросах
Вы не можете прикреплять файлы к сообщениям
Вы не можете скачивать файлы