Встречное течение / Сезон: 1 / Серия 1-8 из 8 ( Кирилл Капица ) [2011 г., Детектив, комедия , DVDRip]

Ответить на тему
 
Автор
Сообщение

awk05 ®

Пол:

Стаж: 4 года 5 месяцев

Сообщений: 1352

Репутация: 275 [+] [-]

Откуда: Западная Украина Ривне

Пост 30-Дек-2013 18:01

[Цитировать] 

-- Встречное течение -- Год выпуска: 2011
Страна: Россия , Всемирные Русские Студии
Жанр: Детектив, комедия
Сезон/Серия: Сезон: 1 Серия 1-8 из 8
Перевод: Профессиональный (многоголосый закадровый)
Продолжительность: 8 х ~00:45:00
Субтитры: нет--Режиссёр: Кирилл Капица--В ролях: "Игорь Ботвин, Дмитрий Луговкин, Мария Капустинская, Вадим Романов, Александр Баргман, Наталья Высочанская, Ярослав Иванов, Анна Пескова, Евгения Игумнова, Михаил Разумовский, Анна Фомина, Аркадий Шароградский, Наталья Ткаченко (Бартева), Алексей Федотов, Александр Ронис, Алексей Федькин, Наталья Кириллова, Александра Каплиева, Филипп Азаров, Максим Меркулов (II), Наталья Шостак, Александр Кудренко, Мария Поликарпова, Дмитрий Сутырин, Александр Мосолов--Описание: Действие сериала разворачивается и в Петербурге, с его многочисленными реками, каналами, мостами, пляжами, и в акватории Финского залива.
Старший сержант Игорь Волошин (Дмитрий Луговкин), откомандирован на службу в Санкт-Петербург, чтобы помочь местной водной милиции. Попав в новые для себя условия, он старается на деле показать свой профессионализм и заслужить уважение командира, капитана Маринина (Игорь Ботвин), и неутомимо ищет расположения очаровательной Оксаны (Мария Капустинская) - третьего участника команды.
Каждая серия - это отдельная история, в которой герои расследуют очередное происшествие. Им приходится столкнуться с утопленником, решившим отомстить своим убийцам, спасти город от серии отравлений, найти общий язык с необычным свидетелем - собакой. Без приключений не проходит ни дня их насыщенной жизни, которая, помимо служебных забот, полна еще и личных переживаний..."--Качество: DVDRip
Формат: AVI
Видео кодек:: DivX 5
Аудио кодек:: MP3
Видео: 704х400 , 16:9 , 25.000 fps , ~1561 kbps avg , 0.222 bit/pixel
Аудио 1: 2 channels , 48 kHz , 128.00 kbps avg-- --

MediaInfo

"Общее
Полное имя : D:\Кино\Vstrechnoe.techenie.(8.serij.iz.8).2011.DivX.DVDRip\Vstrechnoe.techenie.(1.seriya.iz.8).2011.DivX.DVDRip.avi
Формат : AVI
Формат/Информация : Audio Video Interleave
Размер файла : 555 Мбайт
Продолжительность : 45 м.
Общий поток : 1699 Кбит/сек
Программа кодирования : VirtualDubMod 1.5.10.2 (build 2540/release)
Библиотека кодирования : VirtualDubMod build 2540/release
Видео
Идентификатор : 0
Формат : MPEG-4 Visual
Параметр BVOP формата : Нет
Параметр QPel формата : Нет
Параметр GMC формата : Без точки перехода
Параметр матрицы формата : Default (H.263)
Идентификатор кодека : DX50
Идентификатор кодека/Подсказка : DivX 5
Продолжительность : 45 м.
Битрейт : 1561 Кбит/сек
Ширина : 704 пикселя
Высота : 400 пикселей
Соотношение сторон : 16:9
Частота кадров : 25,000 кадров/сек
Цветовое пространство : YUV
Субдискретизация насыщенности : 4:2:0
Битовая глубина : 8 бит
Тип развёртки : Прогрессивная
Метод сжатия : С потерями
Бит/(Пиксели*Кадры) : 0.222
Размер потока : 510 Мбайт (92%)
Библиотека кодирования : DivX 5.2.1 (WaffleDay) (UTC 2004-09-08)
Аудио
Идентификатор : 1
Формат : MPEG Audio
Версия формата : Version 1
Профиль формата : Layer 3
Режим : Joint stereo
Расширение режима : MS Stereo
Идентификатор кодека : 55
Идентификатор кодека/Подсказка : MP3
Продолжительность : 45 м.
Вид битрейта : Постоянный
Битрейт : 128 Кбит/сек
Каналы : 2 канала
Частота : 48,0 КГц
Метод сжатия : С потерями
Размер потока : 41,8 Мбайт (8%)
Выравнивание : Соединение по промежуткам
Продолжительность промежутка : 40 мс. (1,00 видеокадр)
Время предзагрузки промежутка : 504 мс."

Скриншоты


_________________
[Торрент-статистика]
[Профиль]  [ЛС] 
Показать сообщения:    
Ответить на тему

Текущее время: Сегодня 22:15

Часовой пояс: GMT + 4



Вы не можете начинать темы
Вы не можете отвечать на сообщения
Вы не можете редактировать свои сообщения
Вы не можете удалять свои сообщения
Вы не можете голосовать в опросах
Вы не можете прикреплять файлы к сообщениям
Вы не можете скачивать файлы