Груз /Сезон 1 серии 1-24 из 24 (Сергей Винокуров, Александр Якимчук, Алексей Праздников, Вячеслав Лавров) [2013 г., Боевик, криминал, реальные события, SATRip]

Ответить на тему
 
Автор
Сообщение

awk05 ®

Пол:

Стаж: 4 года 5 месяцев

Сообщений: 1352

Репутация: 275 [+] [-]

Откуда: Западная Украина Ривне

Пост 30-Дек-2013 11:43

[Цитировать] 

--Груз (Фельдъегеря)-- Год выпуска: 2013 г.
Страна: Россия, Гамма продакшн
Жанр: Боевик, криминал, реальные события
Сезон/Серия: Сезон:1 /Серия 1-24 из 24
Продолжительность: 24 x ~ 00:45:00
Cубтитры: нет--Режиссер: Сергей Винокуров, Александр Якимчук, Алексей Праздников, Вячеслав Лавров--В ролях: Эдуард Флёров, Александр Большаков, Алексей Федотов, Юлия Горшенина, Иван Паршин--Описание: Передать письмо, секретную деталь военного изобретения, донорский орган или драгоценности… Груз будет доставлен несмотря ни на что! Главный герой нового сериала НТВ — подполковник фельдъегерской службы Денис Логинов. Под его чутким руководством службу несут капитаны Зарубина, Вершинин и лейтенант Головин. Их экипаж — на особом счету у начальства: полковник Демьянов готов всегда прийти на выручку и встать на их защиту. Несмотря на развитие электронной и спутниковой связи, передача информации «из рук в руки» своих позиций не сдает. Особенно тогда, когда речь идет о государственных документах, содержащих конфиденциальные сведения. До сих пор фельдъегерская служба остается одной из самых секретных. Обычно фельдъегери остаются в тени, но от них подчас зависит безопасность рядовых граждан. В основе сериала — реальные факты из практики фельдъегерских подразделений, жизнь которых полна приключений и опасных сюжетных поворотов, ведь каждый из пакетов, доверенных фельдъегерю, является предметом острого интереса конкурирующих, не всегда мирных сил. Многие готовы дорого заплатить за то, чтобы груз попал к ним, а не к адресату. Но и фельдъегери знают: они должны выполнить поручение любой ценой, даже если она непомерно высока…--Качество: SATRip
Формат видео: AVI
Видео кодек: DivX
Аудио кодек: MP3
Видео: DivX, 720 x 416 (1.731), 1 500 Kbps, 25.000 fps,
Аудио: MP3, 2 ch, 128 Кбит/с-- --

MediaInfo

General
Complete name : E:\Сериалы новые\Gruz.SATRip\Gruz.01.SATRip.avi
Format : AVI
Format/Info : Audio Video Interleave
File size : 520 MiB
Duration : 44mn 21s
Overall bit rate : 1 638 Kbps
Writing library : VirtualDub build 32842/release
Video
ID : 0
Format : MPEG-4 Visual
Format settings, BVOP : 1
Format settings, QPel : No
Format settings, GMC : No warppoints
Format settings, Matrix : Default (H.263)
Muxing mode : Packed bitstream
Codec ID : DX50
Codec ID/Hint : DivX 5
Duration : 44mn 21s
Bit rate : 1 500 Kbps
Width : 720 pixels
Height : 416 pixels
Display aspect ratio : 1.731
Frame rate : 25.000 fps
Color space : YUV
Chroma subsampling : 4:2:0
Bit depth : 8 bits
Scan type : Progressive
Compression mode : Lossy
Bits/(Pixel*Frame) : 0.200
Stream size : 476 MiB (92%)
Writing library : DivX 6.8.5 (UTC 2009-08-20)
Audio
ID : 1
Format : MPEG Audio
Format version : Version 1
Format profile : Layer 3
Mode : Joint stereo
Codec ID : 55
Codec ID/Hint : MP3
Duration : 44mn 21s
Bit rate mode : Constant
Bit rate : 128 Kbps
Channel count : 2 channels
Sampling rate : 48.0 KHz
Compression mode : Lossy
Stream size : 40.6 MiB (8%)
Alignment : Split accross interleaves
Interleave, duration : 40 ms (1.00 video frame)
Interleave, preload duration : 500 ms

_________________
[Торрент-статистика]
[Профиль]  [ЛС] 
Показать сообщения:    
Ответить на тему

Текущее время: Сегодня 08:57

Часовой пояс: GMT + 4



Вы не можете начинать темы
Вы не можете отвечать на сообщения
Вы не можете редактировать свои сообщения
Вы не можете удалять свои сообщения
Вы не можете голосовать в опросах
Вы не можете прикреплять файлы к сообщениям
Вы не можете скачивать файлы