Провокатор / Серии: 1-4 из 4 (Дмитрий Пантелеев) [2011, Криминал, Мелодрама, SATRip]

Ответить на тему
 
Автор
Сообщение

awk05 ®

Пол:

Стаж: 4 года 5 месяцев

Сообщений: 1352

Репутация: 275 [+] [-]

Откуда: Западная Украина Ривне

Пост 30-Дек-2013 00:48

[Цитировать] 

--Провокатор-- Год выпуска: 2011
Производство: Кинокомпания "Браво"
Жанр: Криминал, Мелодрама
Сезон/Серия: Сезон:1 /Серия 1-4 из 4
Продолжительность: 4 х 00:47:21
Субтитры: отсутствуют--Режиссёр: Дмитрий Пантелеев--В ролях: Виталий Хаев, Игорь Волков, Евгений Сангаджиев, Александра Шевченко, Николай Величко, Евгений Юхновец--Описание: Подложить или не подложить кошелек в карман вора, если ты уверен, что он вор? Подбросить наркотики дилеру, взрывчатку террористу, если ты уверен, что это - наркоторговец и террорист? Для старшего следователя СКП Панкратова (Виталий Хаев) ответ на подобные вопросы однозначен: "Да". Потому что его оперативный метод - провокация. А сам Панкратов - провокатор. Чтобы разоблачить преступника, заставить его действовать и тем самым раскрыть себя, Панкратов способен на любую провокацию. Он всегда действует жестко, цинично, зачастую нарушая закон. Его бы давно уже "вышибли" из органов, а то и посадили, если бы не его эффективность. Начальство терпит Панкратова с трудом и прикрепляет к нему "правильного" и неопытного помощника, молодого следователя Сангаджи Бадмаева (Евгений Сангаджиев), калмыка по национальности. Кроме жесткости и решительности, Панкратов обладает хорошим чувством юмора. И делать все он старается весело - поэтому в сериале есть место забавным ситуациям, значительная часть которых "приходится" на взаимоотношения Панкратова и Бадмаева. Несмотря на все протесты Сангаджи, Панкратов называет его Саней и вообще всячески над ним подшучивает. Притягательный в своем циничном, остром юморе Панкратов, как и фильм в целом, наверняка полюбится российскому зрителю.
А сюжет "Провокатора" таков. Панкратов втайне от начальства (что ему свойственно) едет на расследование убийства своего давнего товарища и его семьи в Краснодарский край, где провокационными методами пытается вывести преступную группировку местного авторитета Сапуна (Игорь Волков), который к тому же является главой злополучного края, на чистую воду. Помогает ему в этом увязавшийся следом Сангаджи и очаровательная журналистка из Москвы Женя Колесникова (Александра Шевченко), которую они встречают уже на месте, по уши увязнув в криминальной истории. Риск, юмор, любовь, дружба и непредсказуемая развязка!--Качество: SATRip
Формат: AVI
Видео кодек: XviD
Аудио кодек: MP3
Видео: 704x400 (1.76:1), 25 fps, XviD build 64 ~1650 kbps avg, 0.23 bit/pixe
Аудио: 48 kHz, MPEG Layer 3, 2 ch, ~128.00 kbps avg--Любая реклама отсутствует!--

MI

Общее
Полное имя : D:\сериал Провокатор\01 серия.avi
Формат : AVI
Формат/Информация : Audio Video Interleave
Размер файла : 606 Мбайт
Продолжительность : 47 м.
Общий поток : 1789 Кбит/сек
Программа кодирования : VirtualDubMod 1.5.10.2 (build 2540/release)
Библиотека кодирования : Boilsoft AVI tool build 1/release
Видео
Идентификатор : 0
Формат : MPEG-4 Visual
Профиль формата : Advanced Simple@L5
Параметр BVOP формата : 1
Параметр QPel формата : Нет
Параметр GMC формата : Без точки перехода
Параметр матрицы формата : Default (H.263)
Идентификатор кодека : XVID
Идентификатор кодека/Подсказка : XviD
Продолжительность : 47 м.
Битрейт : 1651 Кбит/сек
Ширина : 704 пикселя
Высота : 400 пикселей
Соотношение сторон : 16:9
Частота кадров : 25,000 кадров/сек
Цветовое пространство : YUV
Субдискретизация насыщенности : 4:2:0
Битовая глубина : 8 бит
Тип развёртки : Прогрессивная
Метод сжатия : С потерями
Бит/(Пиксели*Кадры) : 0.235
Размер потока : 559 Мбайт (92%)
Библиотека кодирования : XviD 64
Аудио
Идентификатор : 1
Формат : MPEG Audio
Версия формата : Version 1
Профиль формата : Layer 3
Режим : Joint stereo
Расширение режима : MS Stereo
Идентификатор кодека : 55
Идентификатор кодека/Подсказка : MP3
Продолжительность : 47 м.
Вид битрейта : Постоянный
Битрейт : 128 Кбит/сек
Каналы : 2 канала
Частота : 48,0 КГц
Метод сжатия : С потерями
Размер потока : 43,4 Мбайт (7%)
Выравнивание : Соединение по промежуткам
Продолжительность промежутка : 40 мс. (1,00 видеокадр)
Время предзагрузки промежутка : 504 мс.
Библиотека кодирования : LAMEе”E'r±аЂ’«н

_________________
[Торрент-статистика]
[Профиль]  [ЛС] 
Показать сообщения:    
Ответить на тему

Текущее время: Сегодня 10:55

Часовой пояс: GMT + 4



Вы не можете начинать темы
Вы не можете отвечать на сообщения
Вы не можете редактировать свои сообщения
Вы не можете удалять свои сообщения
Вы не можете голосовать в опросах
Вы не можете прикреплять файлы к сообщениям
Вы не можете скачивать файлы