Тонкая Грань / Серии: 1-8 из 8 (Тимур Кабулов) [2011, Детективная мелодрама, DVDRip]

Ответить на тему
 
Автор
Сообщение

awk05 ®

Пол:

Стаж: 4 года 5 месяцев

Сообщений: 1352

Репутация: 275 [+] [-]

Откуда: Западная Украина Ривне

Пост 30-Дек-2013 00:40

[Цитировать] 

--Тонкая Грань-- Год выпуска: 2011
Производство: Центр кинопроизводства
Жанр: Детективная мелодрама
Сезон/Серия: Сезон:1 /Серия 1-8 из 8
Продолжительность: 8 х 00:44:00
Субтитры: нет--Режиссёр: Тимур Кабулов--В ролях: Илья Древнов, Елена Панова, Павел Сборщиков, Владислав Резник, Роман Ладнев, Илья Барабанов, Вадим Андреев, Егор Катков, Александр Кудинов, Андрей Белозеров, Александра Грин, Дарья Калмыкова, Евгения Осипова, Михаил Богдасаров, Анатолий Гущин--Описание: В районной прокуратуре новый сотрудник – Павел Кругляков. Коллеги воспринимают нового назначенца в штыки, однако новичок оказывается совсем не прост. В первую же неделю он, играючи, раскрывает два безнадежных дела, не реагируя на подколки, оставаясь дружелюбным и сдержанным. Павла привлекает красивая, умная и к тому же одинокая коллега – Марина Синицына, которая в свою очередь тоже обращает внимание на нового сослуживца. Работая рядом с Павлом, Марина не перестает удивляться его уму, таланту, доброте и человечности. Ее удивление перерастает в интерес, а потом возникает чувство, которое становится взаимным. Но это не радует только одного человека – их коллегу Мартынова, который давно ухаживал за Синицыной. Образуется любовный треугольник, и Мартынов решается на подлость...--Качество: DVDRip
Формат: AVI
Видео кодек: XviD
Аудио кодек: MP3
Видео: DivX 5, 720x402, 16:9, 23.98fps 1196Kbps 0.172bit/pixel
Аудио: MPEG Audio Layer 3, 2 channels, 44100Hz stereo, 128kbps--

MI

General
Complete name : D:\DOWNLOAD\Тонкая грань 1-8 [2011] DVDRip\Tonkaya.Gran.8.2011.DVDRip.avi
Format : AVI
Format/Info : Audio Video Interleave
File size : 425 MiB
Duration : 44mn 33s
Overall bit rate : 1 334 Kbps
Writing application : VirtualDubMod 1.5.10.2 (build 2540/release)
Writing library : VirtualDubMod build 2540/release
Video
ID : 0
Format : MPEG-4 Visual
Format profile : Advanced Simple@L5
Format settings, BVOP : 2
Format settings, QPel : No
Format settings, GMC : No warppoints
Format settings, Matrix : Default (H.263)
Muxing mode : Packed bitstream
Codec ID : XVID
Codec ID/Hint : XviD
Duration : 44mn 33s
Bit rate : 1 196 Kbps
Width : 720 pixels
Height : 402 pixels
Display aspect ratio : 16:9
Frame rate : 23.976 fps
Color space : YUV
Chroma subsampling : 4:2:0
Bit depth : 8 bits
Scan type : Progressive
Compression mode : Lossy
Bits/(Pixel*Frame) : 0.172
Stream size : 381 MiB (90%)
Writing library : XviD 1.2.1 (UTC 2008-12-04)
Audio
ID : 1
Format : MPEG Audio
Format version : Version 1
Format profile : Layer 3
Mode : Joint stereo
Mode extension : MS Stereo
Codec ID : 55
Codec ID/Hint : MP3
Duration : 44mn 33s
Bit rate mode : Constant
Bit rate : 128 Kbps
Channel(s) : 2 channels
Sampling rate : 44.1 KHz
Compression mode : Lossy
Stream size : 40.8 MiB (10%)
Alignment : Split accross interleaves
Interleave, duration : 42 ms (1.00 video frame)
Interleave, preload duration : 500 ms

Скриншоты





_________________
[Торрент-статистика]
[Профиль]  [ЛС] 
Показать сообщения:    
Ответить на тему

Текущее время: Сегодня 22:15

Часовой пояс: GMT + 4



Вы не можете начинать темы
Вы не можете отвечать на сообщения
Вы не можете редактировать свои сообщения
Вы не можете удалять свои сообщения
Вы не можете голосовать в опросах
Вы не можете прикреплять файлы к сообщениям
Вы не можете скачивать файлы