Охраняемые лица / Серии: 1 - 8 из 8 (Дмитрий Кузьмин) [2011, детектив, криминал, DVDRip]

Ответить на тему
 
Автор
Сообщение

awk05 ®

Пол:

Стаж: 4 года 5 месяцев

Сообщений: 1352

Репутация: 275 [+] [-]

Откуда: Западная Украина Ривне

Пост 29-Дек-2013 23:51

[Цитировать] 

--Охраняемые лица-- Год выпуска: 2011
Страна: Россия
Производство: БФГ-МЕДИА-ПРОДАКШН
Сезон/Серия: Сезон:1 /Серия 1-8 из 8
Жанр: детектив, криминал
Продолжительность: 8 серий 00:43:35
Субтитры: нет.--Режиссёр: Дмитрий Кузьмин--В ролях: Ирина Лачина, Иван Оганесян, Александр Половцев, Борис Хвошнянский, Фархад Махмудов, Сергей Мурзин, Владимир Долинский, Никита Панфилов, Сергей Габриэлян, Иван Агапов, Юрий Ваксман, Оксана Дорохина...--Описание:Марии Красновой немного за тридцать. Она красивая, умная, самостоятельная женщина, в одиночку растящая сына. Бывший муж периодически появляется в её жизни. Казалось бы, всё ,как у всех, но дело в том, что профессия у Маши немного неженская. Она – телохранитель. Каково это быть женщиной, занимающейся очень мужским делом?--Качество: DVDRip
Формат: AVI
Видео кодек: XviD
Аудио кодек: AC3
Видео: 720x384 (1.875:1), 25.0 fps, XviD MPEG-4 ~1589 kbps avg, 0.230 bit/pixel
Аудио: 48 kHz, AC3, 2/0 (L,R) ch, 192 kbps-- --

MediaInfo

Общее
Полное имя : Ohranyaemye.litsa.2011.O.DVDRip\1.avi
Формат : AVI
Формат/Информация : Audio Video Interleave
Размер файла : 558 Мбайт
Продолжительность : 43 м.
Общий поток : 1791 Кбит/сек
Программа кодирования : VirtualDubModRus 1.5.10.2 (build 2542/release)
Библиотека кодирования : VirtualDubMod build 2542/release
Видео
Идентификатор : 0
Формат : MPEG-4 Visual
Профиль формата : Advanced Simple@L5
Параметр BVOP формата : 1
Параметр QPel формата : Нет
Параметр GMC формата : Без точки перехода
Параметр матрицы формата : Выборочная
Идентификатор кодека : XVID
Идентификатор кодека/Подсказка : XviD
Продолжительность : 43 м.
Битрейт : 1589 Кбит/сек
Ширина : 720 пикселей
Высота : 384 пикселя
Соотношение сторон : 1,875
Частота кадров : 25,000 кадров/сек
Цветовое пространство : YUV
Субдискретизация насыщенности : 4:2:0
Битовая глубина : 8 бит
Тип развёртки : Прогрессивная
Метод сжатия : С потерями
Бит/(Пиксели*Кадры) : 0.230
Размер потока : 495 Мбайт (89%)
Библиотека кодирования : XviD 1.2.1 (UTC 2008-12-04)
Аудио
Идентификатор : 1
Формат : AC-3
Формат/Информация : Audio Coding 3
Расширение режима : CM (complete main)
Идентификатор кодека : 2000
Продолжительность : 43 м.
Вид битрейта : Постоянный
Битрейт : 192 Кбит/сек
Каналы : 2 канала
Расположение каналов : Front: L R
Частота : 48,0 КГц
Битовая глубина : 16 бит
Метод сжатия : С потерями
Размер потока : 59,8 Мбайт (11%)
Выравнивание : Разделение по промежуткам
Продолжительность промежутка : 40 мс. (1,00 видеокадр)
Время предзагрузки промежутка : 500 мс.

Скриншоты


_________________
[Торрент-статистика]
[Профиль]  [ЛС] 
Показать сообщения:    
Ответить на тему

Текущее время: Сегодня 06:22

Часовой пояс: GMT + 4



Вы не можете начинать темы
Вы не можете отвечать на сообщения
Вы не можете редактировать свои сообщения
Вы не можете удалять свои сообщения
Вы не можете голосовать в опросах
Вы не можете прикреплять файлы к сообщениям
Вы не можете скачивать файлы