Собачья работа / Серии: 1-8 из 8 (Алексей Рудаков) [2012 г., Криминал, детектив, HDTVRip] 720p

Ответить на тему
 
Автор
Сообщение

awk05 ®

Пол:

Стаж: 4 года 5 месяцев

Сообщений: 1352

Репутация: 275 [+] [-]

Откуда: Западная Украина Ривне

Пост 29-Дек-2013 22:33

[Цитировать] 

--Собачья работа-- Год выпуска: 2012 г.
Страна: Россия, Art Pictures Media
Жанр: Криминал, детектив
Сезон/Серия: Сезон:1 /Серия 1-8 из 8
Продолжительность: 8 х ~ 00:44:00
Cубтитры: нет--Режиссер: Алексей Рудаков--В ролях: Владимир Епифанцев, Ирина Лачина, Александр Стриженов, Светлана Немоляева, Михаил Полицеймакo, Елена Дробышева, Анатолий Журавлёв, Галина Звягинцева, Наталия Житкова, Сергей Фролов, Алексей Ильин, Иван Рудаков, Тамара Череповская, Полина Шулика, Игорь Пазыч, Денис Варенов, Николай Круглов,--Описание: Капитан полиции и кинолог Илья Смагин (Владимир Епифанцев) во время спецоперации по обезвреживанию банды наркодилеров теряет своего напарника и верного друга - пса Рагдая. Смагин тяжело переживает потерю, но, несмотря на уговоры сослуживцев и своей жены-художницы Тони (Ирина Лачина), не спешит брать новую собаку. Рагдай был лучшим "поисковиком" кинологической службы, и Смагин не верит, что ему когда-нибудь удастся найти пса, равного ему. Однако когда Илья уже решает начать поиски новой собаки, судьба преподносит ему неожиданный подарок. Смагину передают письмо от погибшего товарища, в котором тот просит позаботиться о его ретривере Луше...--Качество: HDTVRip 720p
Формат: MKV
Видео кодек: H.264
Аудио кодек: AC3
Видео: 1280x720, 25 fps, x264 AVC ~3850 kbps avg, 0.167 bit/pixel
Аудио: 48 kHz, Audio Coding 3, 2 ch, ~192.00 kbps avg--

MediaInfo

Общее
Уникальный идентификатор : 217908143780734588511263128652079182307 (0xA3EF94F8ED2943CB90DE91FC238431E3)
Полное имя : D:\Раздачи\Собачья работа.2012_HDTVRip(720p)\Собачья работа.02.2012_HDTVRip(720p).mkv
Формат : Matroska
Версия формата : Version 2
Размер файла : 1,25 Гбайт
Продолжительность : 44 м.
Общий поток : 4022 Кбит/сек
Дата кодирования : UTC 2013-01-15 17:02:24
Программа кодирования : mkvmerge v4.9.1 ('Ich will') сборка от Jul 11 2011 23:53:15
Библиотека кодирования : libebml v1.2.1 + libmatroska v1.1.1
Видео
Идентификатор : 1
Формат : AVC
Формат/Информация : Advanced Video Codec
Профиль формата : High@L4.1
Параметр CABAC формата : Да
Параметр ReFrames формата : 5 кадров
Идентификатор кодека : V_MPEG4/ISO/AVC
Продолжительность : 44 м.
Битрейт : 3850 Кбит/сек
Ширина : 1280 пикселей
Высота : 720 пикселей
Соотношение сторон : 16:9
Режим частоты кадров : Постоянный
Частота кадров : 25,000 кадров/сек
Цветовое пространство : YUV
Субдискретизация насыщенности : 4:2:0
Битовая глубина : 8 бит
Тип развёртки : Прогрессивная
Бит/(Пиксели*Кадры) : 0.167
Размер потока : 1,17 Гбайт (93%)
Библиотека кодирования : x264 core 116 r2044 392e762
Настройки программы : cabac=1 / ref=5 / deblock=1:-1:-1 / analyse=0x3:0x113 / me=umh / subme=10 / psy=1 / psy_rd=0.00:0.10 / mixed_ref=1 / me_range=32 / chroma_me=1 / trellis=2 / 8x8dct=1 / cqm=0 / deadzone=21,11 / fast_pskip=0 / chroma_qp_offset=-1 / threads=12 / sliced_threads=0 / nr=0 / decimate=1 / interlaced=0 / bluray_compat=0 / constrained_intra=0 / bframes=5 / b_pyramid=2 / b_adapt=1 / b_bias=0 / direct=1 / weightb=1 / open_gop=0 / weightp=2 / keyint=250 / keyint_min=25 / scenecut=40 / intra_refresh=0 / rc_lookahead=40 / rc=abr / mbtree=1 / bitrate=3850 / ratetol=1.0 / qcomp=0.60 / qpmin=0 / qpmax=69 / qpstep=4 / ip_ratio=1.40 / aq=1:1.00
Default : Да
Forced : Нет
Аудио
Идентификатор : 2
Формат : AC-3
Формат/Информация : Audio Coding 3
Расширение режима : CM (complete main)
Параметр Endianness формата : Big
Идентификатор кодека : A_AC3
Продолжительность : 44 м.
Вид битрейта : Постоянный
Битрейт : 192 Кбит/сек
Каналы : 2 канала
Расположение каналов : Front: L R
Частота : 48,0 КГц
Битовая глубина : 16 бит
Метод сжатия : С потерями
Размер потока : 61,3 Мбайт (5%)
Default : Да
Forced : Нет

Скриншоты


_________________
[Торрент-статистика]
[Профиль]  [ЛС] 
Показать сообщения:    
Ответить на тему

Текущее время: Сегодня 08:40

Часовой пояс: GMT + 4



Вы не можете начинать темы
Вы не можете отвечать на сообщения
Вы не можете редактировать свои сообщения
Вы не можете удалять свои сообщения
Вы не можете голосовать в опросах
Вы не можете прикреплять файлы к сообщениям
Вы не можете скачивать файлы