Наружное наблюдение [01-24 из 24] (Юрий Нифонтов) [2012 г., Детектив, DVDRip]

Ответить на тему
 
Автор
Сообщение

awk05 ®

Пол:

Стаж: 4 года 5 месяцев

Сообщений: 1352

Репутация: 275 [+] [-]

Откуда: Западная Украина Ривне

Пост 29-Дек-2013 22:16

[Цитировать] 

--Наружное наблюдение-- Год выпуска: 2012 г.
Страна: Россия
Жанр: Детектив
Сезон/Серия: 01-24 из 24
Продолжительность: 24 x ~ 00:44:00
Cубтитры: нет--Режиссер: Юрий Нифонтов--В ролях: Сергей Горобченко, Даниил Страхов, Максим Дрозд, Юлия Маньковская, Сергей Перегудов, Дмитрий Кочкин, Владимир Бирюков, Илья Любимов, Роман Синицын, Олег Протасов, Юрий Нифонтов, Иван Жидков, Вячеслав Карпов, Ингрид Олеринская, Анна Пескова, Михаил Сидаш, Олег Гераськин, Константин Демидов (II), Павел Ерлыков, Фёдор Добронравов, Игорь Иванов, Михаил Ефремов, Александр Пашутин, Сергей Габриэлян, Денис Кириллов, Андрей Ургант, Алексей Симонов, Андрей Негривода, Дарья Шиханова, Федор Дунаевский, Ксения Иванова, Владимир Яковлев (II), Геннадий Меньшиков, Виталий Григорьев--Описание: Это секретная служба внутри системы МВД, её разведка, её глаза и уши. Герои нашей истории - настоящие профессионалы, влюблённые в своё дело, борцы с преступностью. Им противостоят опытные, хитрые, имеющие связи в высших эшелонах власти преступники, которые, сняв «треники», надели костюмы от «Бриони», и стали добропорядочными коммерсантами. Таков вор в законе Ребус, перебравшийся в Питер с «северов» - Сибирь оказалась слишком мала для масштабов Ребуса, и он присмотрел для себя «лакомый кусок» в северной столице. И всё бы получилось, если бы в дело не вмешался экипаж 735… Главная героиня сериала, Полина Ольховская теряет любимого человека - сотрудник «наружки» Антон Гурьев был убит при слежке за неуловимым киллером по кличке Ташкент. Полина решает встать на путь мести, не подозревая, что он станет для неё дорогой потерь.--Качество видео: DVDRip
Формат видео: AVI
Видео кодек: XviD
Аудио кодек: MP3
Видео: XviD, ~ 1500 Кбит/с, 720x400, 16:9, 25,000 кадров/сек, Бит/(Пиксели*Кадры): 0.200
Аудио: MP3, 48,0 КГц, 2 канала, 192 Кбит/с--

MediaInfo

Общее
Полное имя : D:\Раздачи\Наружное наблюдение\Наружное наблюдение_02.avi
Формат : AVI
Формат/Информация : Audio Video Interleave
Размер файла : 506 Мбайт
Продолжительность : 43 м.
Общий поток : 1692 Кбит/сек
Библиотека кодирования : VirtualDub build 32507/release
Видео
Идентификатор : 0
Формат : MPEG-4 Visual
Профиль формата : Advanced Simple@L5
Параметр BVOP формата : 2
Параметр QPel формата : Нет
Параметр GMC формата : Без точки перехода
Параметр матрицы формата : Default (H.263)
Режим смешивания : Сжатый битовый поток
Идентификатор кодека : XVID
Идентификатор кодека/Подсказка : XviD
Продолжительность : 43 м.
Битрейт : 1500 Кбит/сек
Ширина : 720 пикселей
Высота : 400 пикселей
Соотношение сторон : 16:9
Частота кадров : 25,000 кадров/сек
Цветовое пространство : YUV
Субдискретизация насыщенности : 4:2:0
Битовая глубина : 8 бит
Тип развёртки : Прогрессивная
Метод сжатия : С потерями
Бит/(Пиксели*Кадры) : 0.200
Размер потока : 425 Мбайт (88%)
Библиотека кодирования : XviD 64
Аудио
Идентификатор : 1
Формат : MPEG Audio
Версия формата : Version 1
Профиль формата : Layer 3
Режим : Joint stereo
Расширение режима : MS Stereo
Идентификатор кодека : 55
Идентификатор кодека/Подсказка : MP3
Продолжительность : 43 м.
Вид битрейта : Постоянный
Битрейт : 192 Кбит/сек
Каналы : 2 канала
Частота : 48,0 КГц
Метод сжатия : С потерями
Размер потока : 56,7 Мбайт (12%)
Выравнивание : Разделение по промежуткам
Продолжительность промежутка : 40 мс. (1,00 видеокадр)
Время предзагрузки промежутка : 500 мс.

Скриншоты


_________________
[Торрент-статистика]
[Профиль]  [ЛС] 
Показать сообщения:    
Ответить на тему

Текущее время: Сегодня 06:28

Часовой пояс: GMT + 4



Вы не можете начинать темы
Вы не можете отвечать на сообщения
Вы не можете редактировать свои сообщения
Вы не можете удалять свои сообщения
Вы не можете голосовать в опросах
Вы не можете прикреплять файлы к сообщениям
Вы не можете скачивать файлы