ОСА / Сезон: 1 / Серии: 01-63 из ?? (Юрий Харнас) [2013, Детектив, SATRip]

Ответить на тему
 
Автор
Сообщение

awk05 ®

Пол:

Стаж: 4 года 5 месяцев

Сообщений: 1352

Репутация: 275 [+] [-]

Откуда: Западная Украина Ривне

Пост 29-Дек-2013 21:50

[Цитировать] 

--ОСА--
Год выпуска: 2013
Производство: ООО «ТелеРОМАН» (Россия)
Жанр: Детектив
Сезон/Серия: Сезон:1 /Серия 1-63 из ??
Продолжительность: 63 х ~ 00:48:50
Субтитры: отсутствуют--Режиссёр: Юрий Харнас--В ролях: Николай Токарев, Алексей Гришин, Григорий Кирдяшкин, Артур Кононов, Юлия Юрченко, Елизавета Юрьевна Романова, Эльвира Ибрагимова, Валерия Богук, Инна Валерьевна, Иван Руденко, Петр Добродеенко, Наталья Кожевникова, Юлия Синельникова, Денис Жариков, Никита Сологалов, Анна Галлямова, Лариса Нестерова, Николай Лунин, Николай Сороканов.--Описание: Как раскрыть преступление, если злоумышленники не оставили ни одной улики? Когда традиционные методы расследования не приносят результатов, приходит время Управления Особой следственной аналитики.
Управление Особой следственной аналитики, сокращенно ОСА, образовано летом 2013 года для расследования преступлений с высоким криминальным потенциалом. Идеологом его создания стал гений оперативной аналитики генерал полиции Зотов. Он же и стал во главе Управления «ОСА».
«ОСА» – это профессиональная команда аналитиков-криминалистов, суперсовременный компьютер с искусственным интеллектом «Матильда» и, конечно, неподражаемый и харизматичный Зотов. Секретное подразделение выходит на борьбу со злом даже тогда, когда преступники не оставляют на месте происшествия ни одной улики.--Качество: SATRip
Формат: AVI
Видео кодек: DivX
Аудио кодек: MP3
Видео: MPEG4, DivX 5, 720x400 (16:9), 25.000 fps, 1 499 Kbps (0.208 bit/pixel)
Аудио: MP3, 48.0 KHz, 2 ch, 128 Kbps, CBR-- --

MI

Общее
Полное имя : G:\тест\OSA\OSA.01.SATRip.avi
Формат : AVI
Формат/Информация : Audio Video Interleave
Размер файла : 607 Мбайт
Продолжительность : 51 м.
Общий поток : 1636 Кбит/сек
Библиотека кодирования : VirtualDub build 32842/release
Видео
Идентификатор : 0
Формат : MPEG-4 Visual
Параметр BVOP формата : 1
Параметр QPel формата : Нет
Параметр GMC формата : Без точки перехода
Параметр матрицы формата : Default (H.263)
Режим смешивания : Сжатый битовый поток
Идентификатор кодека : DX50
Идентификатор кодека/Подсказка : DivX 5
Продолжительность : 51 м.
Битрейт : 1499 Кбит/сек
Ширина : 720 пикселей
Высота : 400 пикселей
Соотношение сторон : 16:9
Частота кадров : 25,000 кадров/сек
Цветовое пространство : YUV
Субдискретизация насыщенности : 4:2:0
Битовая глубина : 8 бит
Тип развёртки : Прогрессивная
Метод сжатия : С потерями
Бит/(Пиксели*Кадры) : 0.208
Размер потока : 556 Мбайт (92%)
Библиотека кодирования : DivX 3013
Аудио
Идентификатор : 1
Формат : MPEG Audio
Версия формата : Version 1
Профиль формата : Layer 3
Идентификатор кодека : 55
Идентификатор кодека/Подсказка : MP3
Продолжительность : 51 м.
Вид битрейта : Постоянный
Битрейт : 128 Кбит/сек
Каналы : 2 канала
Частота : 48,0 КГц
Метод сжатия : С потерями
Размер потока : 47,5 Мбайт (8%)
Выравнивание : Разделение по промежуткам
Продолжительность промежутка : 40 мс. (1,00 видеокадр)
Время предзагрузки промежутка : 500 мс.

Скриншоты


_________________
[Торрент-статистика]
[Профиль]  [ЛС] 
Показать сообщения:    
Ответить на тему

Текущее время: Сегодня 22:16

Часовой пояс: GMT + 4



Вы не можете начинать темы
Вы не можете отвечать на сообщения
Вы не можете редактировать свои сообщения
Вы не можете удалять свои сообщения
Вы не можете голосовать в опросах
Вы не можете прикреплять файлы к сообщениям
Вы не можете скачивать файлы