Сеть (12 серий из 12) (Нурбек Эген) [2008 г., Приключения, триллер, DVDRip]

Ответить на тему
 
Автор
Сообщение

awk05 ®

Пол:

Стаж: 4 года 5 месяцев

Сообщений: 1352

Репутация: 275 [+] [-]

Откуда: Западная Украина Ривне

Пост 29-Дек-2013 19:13

[Цитировать] 

--Сеть -- Год выпуска: 2008
Страна: Россия кинокомпания United Multimedia Projects (UMP) при поддержке компании "Аватарфильм"
Жанр: Приключения, триллер
Сезон/Серия: Сезон:1 /Серия 1-12 из 12
Продолжительность: 12 x ~ 00:42:18
Субтитры: отсутствуют--Режиссер: Нурбек Эген--В ролях: Николай Добрынин, Иван Жидков, Петр Кислов, Елена Кондулайнен, Анастасия Макеева, Ирина Феофанова, Алексей Шевченков, Андрей Вальц, Александр Коржов, Ростислав Крохин, Дарья Мороз, Роман Нестеренко, Анатолий Пашинин, Григорий Перель, Иннокентий Тараб--Описание: Это история о том, как в 80-е годы некто Окаёмов — сначала директор НПО «АЛЬТЕРНАТИВА», а потом монополист по производству электронных систем защиты — заручившись поддержкой старого госаппарата, создал программу воспитания и обучения особо одарённых детей. Его цель — с младых ногтей выпестовать профессиональных хакеров, способных встать на сторону закона в надвигающемся мире технологических преступлений. Особенность воспитания заключалась в том, чтобы пресекать попытки молодых гениев заинтересоваться чем-либо другим — другими кубиками в детсаду, не теми дисциплинами в школе, не той девочкой, от которой можно потерять гениальную голову и так далее…
Делал он всё это в тайне от детей, с помощью денег, заручившись поддержкой нуждающихся родителей, карьеристов-учителей и мотивируя это тем, что так для детей будет лучше… Стоит ли говорить, что его благие намерения привели к тому, к чему и должны были привести…
Дефолт 98-го года положил конец предприятию Окаёмова. Его воспитанники оказались на улице. Главные герои, два друга Тропа и Ден — бывшие ядром эксперимента Окаёмова — теперь крутые хакеры, благородные, но всё же — преступники. И лишь в наши дни они узнают о том, что их детство было ложью сначала и до конца… Это заставляет их оглянуться назад, пересмотреть свои жизни под новым углом и в конце концов ставит по разные стороны закона…--Качество: DVDRip
Формат: AVI
Видео кодек: XviD
Аудио кодек: AC3
Видео: XviD, 704x368, ~ 1 347 Kbps, 25.000 fps, Bits/(Pixel*Frame): 0.208
Аудио: AC3,48.0 KHz, 2 ch, 256 Кбит/с--

MediaInfo

General
Complete name : E:\Сериалы новые\Setj.12.serij.iz.12.2008.DVDRip\Setj.01.ser.avi
Format : AVI
Format/Info : Audio Video Interleave
File size : 508 MiB
Duration : 42mn 18s
Overall bit rate : 1 678 Kbps
Writing application : VirtualDubMod 1.5.4.1 (build 2178/release)
Writing library : VirtualDubMod build 2178/release
Video
ID : 0
Format : MPEG-4 Visual
Format profile : Advanced Simple@L5
Format settings, BVOP : 2
Format settings, QPel : No
Format settings, GMC : No warppoints
Format settings, Matrix : Default (MPEG)
Muxing mode : Packed bitstream
Codec ID : XVID
Codec ID/Hint : XviD
Duration : 42mn 18s
Bit rate : 1 347 Kbps
Width : 704 pixels
Height : 368 pixels
Display aspect ratio : 1.913
Frame rate : 25.000 fps
Color space : YUV
Chroma subsampling : 4:2:0
Bit depth : 8 bits
Scan type : Progressive
Compression mode : Lossy
Bits/(Pixel*Frame) : 0.208
Stream size : 408 MiB (80%)
Writing library : XviD 1.2.0.dev47 (UTC 2006-11-01)
Audio
ID : 1
Format : AC-3
Format/Info : Audio Coding 3
Mode extension : CM (complete main)
Format settings, Endianness : Big
Codec ID : 2000
Duration : 42mn 18s
Bit rate mode : Constant
Bit rate : 256 Kbps
Channel count : 2 channels
Channel positions : Front: L R
Sampling rate : 48.0 KHz
Bit depth : 16 bits
Compression mode : Lossy
Stream size : 77.5 MiB (15%)
Alignment : Split accross interleaves

_________________
[Торрент-статистика]
[Профиль]  [ЛС] 
Показать сообщения:    
Ответить на тему

Текущее время: Сегодня 22:15

Часовой пояс: GMT + 4



Вы не можете начинать темы
Вы не можете отвечать на сообщения
Вы не можете редактировать свои сообщения
Вы не можете удалять свои сообщения
Вы не можете голосовать в опросах
Вы не можете прикреплять файлы к сообщениям
Вы не можете скачивать файлы