Кобра. Антитеррор (16 серий из 16) (Игорь Апасян, Юрий Кузьменко, Алексей Праздников) [2003 г., Боевик, триллер, криминал, DVDRip]

Ответить на тему
 
Автор
Сообщение

awk05 ®

Пол:

Стаж: 4 года 5 месяцев

Сообщений: 1352

Репутация: 275 [+] [-]

Откуда: Западная Украина Ривне

Пост 29-Дек-2013 18:22

[Цитировать] 

--Кобра. Антитеррор-- Год выпуска: 2003
Страна: Россия Russian World Studio
Жанр: Боевик, триллер, криминал
Сезон/Серия: Сезон:1 /Серия 1-16 из 16
Продолжительность: 16 x 00:44:00
Субтитры: отсутствуют--Режиссер: Игорь Апасян, Юрий Кузьменко, Алексей Праздников--В ролях: Антон Сиверс, Александр Самойленко, Владимир Турчинский, Маркус Кунце, Александр Терешко, Альберт Филозов, Лембит Ульфсак, Дарья Мороз, Михаил Белякович, Владимир Болотнов, Елизавета Боярская, Юрий Герцман, Андрей Гринев, Олег Леваков, Ольга Ломоносова, Наталья Маслова, Геннадий Назаров, Александра Флоринская-Буданова, Виталий Хаев, Александр Цыбульский, Владис Гольк, Юрий Макеев, Игорь Павлов.--Описание: Очередное творение Игоря Апосяна и Юрия Кузьменко “Кобра. Антитеррор” - приемник сериала “Маросейка, 12″. Оно посвящено освещению деятельности налоговых полицейских из спецподразделения “Кобра” - команды быстрого реагирования, которая ведет борьбу с российским терроризмом.
Вы увидите 7 новых фильмов, каждый из которых состоит из нескольких серий. События сериала по-прежнему разворачиваются в Москве. В “Князе тьмы” нас ожидает двойное самоубийство сотрудника НИИ и его жены, связанного с разработкой психотронного оружия. В “Охоте на первого” умирает журналист, занимавшийся громкими расследованиями, от рук людей из загадочной организации ЭФА. Каждый новый фильм принесет новые задачи и новые повороты событий..--Качество: DVDRip
Формат: AVI
Видео кодек: XviD
Аудио кодек: AC3
Видео: 704x400 (1.76:1), 25 fps, XviD build 55, 1 292 Kbps avg, 0.183 bit/pixel
Аудио: 48 kHz, AC3 Dolby Digital, 2/0 (L,R) ch, 448.00 kbps avg

MediaInfo

General
Complete name : E:\Сериалы новые\Kobra.Antiterror.(16.serii.iz.16).2003.XviD.DVDRip.kinozal.tv\Kobra.Antiterror.(01.seriya.iz.16).2003.XviD.DVDRip.kinozal.tv.avi
Format : AVI
Format/Info : Audio Video Interleave
File size : 550 MiB
Duration : 44mn 3s
Overall bit rate : 1 747 Kbps
Writing application : VirtualDubMod 1.5.4.1 (build 2178/release)
Writing library : VirtualDubMod build 2178/release
Video
ID : 0
Format : MPEG-4 Visual
Format profile : Advanced Simple@L5
Format settings, BVOP : 1
Format settings, QPel : No
Format settings, GMC : No warppoints
Format settings, Matrix : Custom
Codec ID : XVID
Codec ID/Hint : XviD
Duration : 44mn 3s
Bit rate : 1 292 Kbps
Width : 704 pixels
Height : 400 pixels
Display aspect ratio : 16:9
Frame rate : 25.000 fps
Color space : YUV
Chroma subsampling : 4:2:0
Bit depth : 8 bits
Scan type : Progressive
Compression mode : Lossy
Bits/(Pixel*Frame) : 0.183
Stream size : 407 MiB (74%)
Writing library : XviD 1.3.0.dev55
Audio
ID : 1
Format : AC-3
Format/Info : Audio Coding 3
Mode extension : CM (complete main)
Format settings, Endianness : Big
Codec ID : 2000
Duration : 44mn 3s
Bit rate mode : Constant
Bit rate : 448 Kbps
Channel count : 2 channels
Channel positions : Front: L R
Sampling rate : 48.0 KHz
Bit depth : 16 bits
Compression mode : Lossy
Stream size : 141 MiB (26%)
Alignment : Split accross interleaves
Interleave, duration : 96 ms (2.40 video frames)
Interleave, preload duration : 96 ms
Language : Russian

Описание серий

Фильм 1: Князь тьмы (2 части). В Москве происходит двойное самоубийство - сотрудник научно-исследовательского института и его жена покончили с собой. А незадолго до этого попадает под электричку и погибает профессор из этого НИИ, разработчик нового психотронного оружия. Выясняется, что супруги были членами сатанинской секты. Один из офицеров Кобры при содействии священника из службы церковной контрразведки внедряется в секту…
Фильм 2: Охота на первого (2 части). Смерть журналиста, известного своими громкими расследованиями, замаскированная под сердечный приступ, на самом деле оказывается делом рук людей из загадочной организации ЭФА, команды суперкиллеров, созданной еще в брежневские времена. По официальной версии ЭФА была распущена в конце восьмидесятых, а ее участники умерли от разных естественных причин. На самом деле вынырнувшие из безвестия убийцы готовят покушение на президента России. Офицер Кобры под видом наемника проникает в самое сердце организации.
Фильм 3: Комплекс вины (2 части). При задержании особо опасных террористов офицер Кобры, Екатерина Вознесенская, смертельно ранит беременную рецидивистку. У Екатерины развивается, так называемый, комплекс вины, и никакая помощь психологов ей не помогает. Вознесенская подает рапорт об уходе из Кобры. Но руководитель группы предлагает Вознесенской просто отдохнуть... в Италии. Он и не предполагает, что там Екатерина попадет в рабство к мужу погибшей террористки. Для того, чтобы спастись самой и спасти других женщин из рабства, Вознесенской приходится преодолеть комплекс вины.
Фильм 4: Обратный отсчет (2 части). При очередном запуске терпит аварию новая ракета-носитель "Корвет", созданная генеральным конструктором Калугиным. Есть подозрение, что авария явилась следствием диверсии, подготовленной кем-то из окружения Калугина. Через несколько дней после аварии должен состояться запуск очередного "Корвета" с международным экипажем на борту. От успешности этого запуска зависит позиционирование России как космической державы.
Фильм 5: Венок сонетов (4 части). В интернете появляется информация о том, что известный букинист, проживающий на Мальте, готов купить за огромные деньги шесть из двенадцати книг, изданных небольшим тиражом в Москве в двадцатые годы неизвестным автором, скрывшимся под псевдонимом Александр. Предлагаемая цена покупки абсолютно не соответствует библиографической ценности книг. Важная деталь - букинист разыскивает только экземпляры с экслибрисом библиотеки одного из важных лиц третьего рейха. В "Кобре" появляется версия, что букинист лишь посредник, за книгами охотятся те люди, которые знают страшную тайну этих книг.
Фильм 6: Гнев (2 части). В офис одного из международных фондов, расположенный в центре Москвы, врываются террористы и берут в заложники нескольких сотрудников фонда, граждан США. Террористы выдвигают требование освободить из-под стражи известного чеченского террориста. "Кобра" с помощью других спецслужба принимает самое активное участие в операции по освобождению заложников.
Фильм 7: Таллиннский экспресс (2 части). Вышедший из тюрьмы криминальный эстонский бизнесмен решает поправить свои финансовые дела, использовав информацию, которой он обладает еще со времен службы на бывшей базе советских подводных лодок. Тогда неподалеку от базы в море упал советский военный самолет с ядерной ракетой на борту. Достав с помощью знакомых водолазов ракету, пролежавшую в море больше двадцати лет, этот эстонский бизнесмен предлагает ее на продажу террористам в Ирак. Однако чеченские террористы, вызвавшиеся посредничать в этой сделке, имеют свои планы. Они, захватив скорый поезд "Таллинн-Москва", везут этот смертоносный груз в Москву...

_________________
[Торрент-статистика]
[Профиль]  [ЛС] 
Показать сообщения:    
Ответить на тему

Текущее время: Сегодня 08:35

Часовой пояс: GMT + 4



Вы не можете начинать темы
Вы не можете отвечать на сообщения
Вы не можете редактировать свои сообщения
Вы не можете удалять свои сообщения
Вы не можете голосовать в опросах
Вы не можете прикреплять файлы к сообщениям
Вы не можете скачивать файлы