Настоящие / Сезон:1 /Серия 1-8 из 8 (Евгений Звездаков) [2011, Криминал, DVDRip]

Ответить на тему
 
Автор
Сообщение

awk05 ®

Пол:

Стаж: 4 года 5 месяцев

Сообщений: 1352

Репутация: 275 [+] [-]

Откуда: Западная Украина Ривне

Пост 29-Дек-2013 17:44

[Цитировать] 

--Настоящие Год выпуска: 2011
Производство: Россия "Всемирные русские студии"
Жанр: Криминал
Сезон/Серия: Сезон:1 /Серия 1-8 из 8
Продолжительность: 8 х 00:47:00
Субтитры: Нет--Режиссёр: Евгений Звездаков--В ролях: Сергей Маховиков, Владимир Епифанцев, Алексей Макаров, Александр Большаков, Светлана Антонова, Игорь Скляр, Сергей Юшкевич, Кристина Кузьмина, Александр Вонтов, Юрий Беляев, Сергей Барковский, Егор Будкевич, Тимофей Будкевич, Евгений Катаев, Максим Меркулов (II), Сергей Мурзин, Олег Трифонов, Адриан Ростовский, Александр Глинский, Егор Петренко, Андрей Аксенов, Серафима Низовская, Егор Бакулин, Филипп Величко-Описание: В пограничном портовом городе бандиты планируют захватить власть. Город может стать "окном" для торговли оружием и наркотиками. Для реализации своего плана на ближайших выборах бандитская группировка выставляет своего кандидата в мэры. Их конкуренты, властные структуры, ведут к победе своего кандидата. Чтобы разрушить планы бандитов, они засылают в группировку шпиона, опытного опера Вестникова…--Качество: DVDRip
Формат: AVI
Видео кодек: XviD
Аудио кодек: AC3
Видео: MPEG4, XviD, 720x400 (16/9), 25.000 fps, 1 770 Kbps, (0.246 bit/pixel)
Аудио: AC-3, 48.0 KHz, 2 ch, 192 Kbps, CBR
Реклама отсутствует!-- --

MI

General
Complete name : E:\Сериалы новые\Настоящие DVDRip\Настоящие. 01.avi
Format : AVI
Format/Info : Audio Video Interleave
File size : 702 MiB
Duration : 47mn 51s
Overall bit rate : 2 052 Kbps
Writing library : VirtualDub build 34753/release
Video
ID : 0
Format : MPEG-4 Visual
Format profile : Advanced Simple@L5
Format settings, BVOP : 2
Format settings, QPel : No
Format settings, GMC : No warppoints
Format settings, Matrix : Default (H.263)
Muxing mode : Packed bitstream
Codec ID : XVID
Codec ID/Hint : XviD
Duration : 47mn 51s
Bit rate : 1 770 Kbps
Width : 720 pixels
Height : 400 pixels
Display aspect ratio : 16:9
Frame rate : 25.000 fps
Color space : YUV
Chroma subsampling : 4:2:0
Bit depth : 8 bits
Scan type : Interlaced
Scan order : Top Field First
Compression mode : Lossy
Bits/(Pixel*Frame) : 0.246
Stream size : 606 MiB (86%)
Writing library : XviD 64
Audio
ID : 1
Format : AC-3
Format/Info : Audio Coding 3
Mode extension : CM (complete main)
Format settings, Endianness : Big
Codec ID : 2000
Duration : 47mn 51s
Bit rate mode : Constant
Bit rate : 192 Kbps
Channel count : 2 channels
Channel positions : Front: L R
Sampling rate : 48.0 KHz
Bit depth : 16 bits
Compression mode : Lossy
Stream size : 65.7 MiB (9%)
Alignment : Aligned on interleaves

_________________
[Торрент-статистика]
[Профиль]  [ЛС] 
Показать сообщения:    
Ответить на тему

Текущее время: Сегодня 22:13

Часовой пояс: GMT + 4



Вы не можете начинать темы
Вы не можете отвечать на сообщения
Вы не можете редактировать свои сообщения
Вы не можете удалять свои сообщения
Вы не можете голосовать в опросах
Вы не можете прикреплять файлы к сообщениям
Вы не можете скачивать файлы