Мангуст 2 1-12 серии из 12 (Кирилл Капица, Мария Соловцова) [2004 г., детектив, DVDRip]

Ответить на тему
 
Автор
Сообщение

awk05 ®

Пол:

Стаж: 4 года 5 месяцев

Сообщений: 1352

Репутация: 275 [+] [-]

Откуда: Западная Украина Ривне

Пост 29-Дек-2013 16:47

[Цитировать] 

--Мангуст -- Год выпуска: 2004
Страна: Россия
Жанр: детектив
Сезон/Серия: Сезон:2 /Серия 1-12 из 12
Продолжительность: 12 Х 00:48:10
Субтитры: отсутствуют--Режиссер: Кирилл Капица--В ролях: Михаил Разумовский, Ян Цапник, Игорь Копылов, Вадим Карев, Валерий Кухарешин, Анна Банщикова, Ирина Колганова, Алла Довлатова, Евгений Румянцев.--Описание: Детективное бюро под названием "Мангуст", название происходит от первых букв фамилий главных героев сериала ушедшего в запас из рядов милиции подполковника Манохина и его ближайшего помощника бывшего капитана милиции, уволенного из рядов "по-хорошему" за "излишнюю" ретивость Густава. Так же в детективном бюро работает и девушка Зося - чемпионка по кикбоксингу в весе мухи. По ходу дела им приходится следить за неверными мужьями и женами, ловить с поличным нечистых на руку бизнесменов, которым вздумалось "кинуть" своих компаньонов, отыскивать пропавшие грузы и документы. Но зачастую рутинные дела перерастают в схватку с особо опасными преступникам, и тогда на помощь "мангустовцам" приходят оперативники из УВД Мазаев и Коротков. Впрочем, кто кому помогает - еще большой вопрос... Сюжет вертикальный, где каждая серия представляет собой законченную историю.--Качество: DVDRip
Формат: AVI
Видео кодек: XviD
Аудио кодек: AC3
Видео: XVID, 704x416, 25.000fps, 935 Kbps,Bits/(Pixel*Frame) 0.128
Аудио: AC3,2 channels, 48000Hz stereo, 224 Kbps--

MediaInfo

General
Complete name : E:\Сериалы новые\Мангуст2 (12 серий из 12)\Mangust.2.01.avi
Format : AVI
Format/Info : Audio Video Interleave
File size : 401 MiB
Duration : 48mn 1s
Overall bit rate : 1 166 Kbps
Writing application : VirtualDubMod 1.5.4.1 (build 2178/release)
Writing library : VirtualDubMod build 2178/release
Video
ID : 0
Format : MPEG-4 Visual
Format profile : Advanced Simple@L5
Format settings, BVOP : 1
Format settings, QPel : No
Format settings, GMC : No warppoints
Format settings, Matrix : Custom
Codec ID : XVID
Codec ID/Hint : XviD
Duration : 48mn 1s
Bit rate : 935 Kbps
Width : 704 pixels
Height : 416 pixels
Display aspect ratio : 1.692
Frame rate : 25.000 fps
Color space : YUV
Chroma subsampling : 4:2:0
Bit depth : 8 bits
Scan type : Progressive
Compression mode : Lossy
Bits/(Pixel*Frame) : 0.128
Stream size : 321 MiB (80%)
Writing library : XviD 1.2.0.dev47 (UTC 2006-11-01)
Audio
ID : 1
Format : AC-3
Format/Info : Audio Coding 3
Mode extension : CM (complete main)
Format settings, Endianness : Big
Codec ID : 2000
Duration : 48mn 1s
Bit rate mode : Constant
Bit rate : 224 Kbps
Channel count : 2 channels
Channel positions : Front: L R
Sampling rate : 48.0 KHz
Bit depth : 16 bits
Compression mode : Lossy
Stream size : 76.9 MiB (19%)
Alignment : Split accross interleaves
Interleave, duration : 96 ms (2.40 video frames)

_________________
[Торрент-статистика]
[Профиль]  [ЛС] 
Показать сообщения:    
Ответить на тему

Текущее время: Сегодня 06:27

Часовой пояс: GMT + 4



Вы не можете начинать темы
Вы не можете отвечать на сообщения
Вы не можете редактировать свои сообщения
Вы не можете удалять свои сообщения
Вы не можете голосовать в опросах
Вы не можете прикреплять файлы к сообщениям
Вы не можете скачивать файлы