Энигма / Серии: 1-15 из 15 (Марина Рудкевич) [2010, Детектив, мистика, шпионский фильм, DVB]

Ответить на тему
 
Автор
Сообщение

awk05 ®

Пол:

Стаж: 4 года 5 месяцев

Сообщений: 1352

Репутация: 275 [+] [-]

Откуда: Западная Украина Ривне

Пост 29-Дек-2013 03:47

[Цитировать] 

--Энигма-- Год выпуска: 2010
Производство: Россия РЕН-ТВ
Жанр: Детектив, мистика, шпионский фильм
Сезон/Серия: Сезон:1 /Серия 1-15 из 15
Продолжительность: 15 х ~ 00:46:00 серия
Субтитры: Отсутствуют--Режиссёр: Марина Рудкевич--В ролях: Альберт Филозов, Наталия Просветова, Константин Демидов (II), Дмитрий Богданов, Дмитрий Фрид, Вячеслав Яковлев, Владимир Лаптев, Юрий Маслак, Владимир Михайлов (II), Надежда Нечаева, Юрий Павлов, Дмитрий Панфилов, Антон Голышев, Анна Зайцева, Сергей Макаров, Александр Мякушко, Сергей Шевченко, Саид Дашук-Нигматулин, Виталий Евдокимов, Александр Новик--Описание: «Энигма» — тайное подразделение. В ведении отдела находятся наиболее загадочные явления, представляющие вероятную опасность. Такие явления принято именовать «паранормальными». Сотрудникам «Энигмы» ясно, что у всякого из схожих явлений имеется своя логика. Если понять, то загадочные силы можно нейтрализовать, или, а, может быть, и вытянуть из них большую выгоду. Ясно, что такая задачка по плечу лишь профессиональным, интеллигентным людям, владеющим, к тому же, незаурядными детективными возможностями. Таковы ключевые герои Олег Корзун, Владимир Власов и Анна Савина. Все трое — чрезвычайно различные, однако их различает верность занятию и увлеченность, потому управление «Энигмы» поручает им наиболее трудные дела. Часто эти дела оказываются продолжением тех изучений, которыми в 30-е годы занимался знаменитый, однако действительно существовавший Спецотдел ВЧК, возглавляемый действительно существовавшим Глебом Бокием. Длительное время «энигмисты» не подозревают о том, что для управляющего их подразделения ключевой целью является розыск контактов с государством, которую во все эпохи именовали по-всякому — от Шамбалы до Беловодья…--Качество: DVB
Формат: MPEG
Видео кодек: MPEG2
Аудио кодек: MPEG1 Layer 2
Видео: MPEG2 Video 704x576 (4:3) 25.00fps 3 727 Kbps, 0.368 bit/pixel
Аудио: MPEG Audio 48000Hz stereo 192 Кбит/сек-- --

Список серий

01.Беловодье
02.Страж
03.Феникс
04.Живое - мертвое
05.Кокон
06.Целитель
07.Шаман
08.Код жизни
09.Холодный фронт
10.Беглец
11.Хроники танцующего призрака
12.Дети индиго
13.Хозяйка
14.Шушмор
15.Коридоры времени

MI

Complete name : Энигма.01_DVB by CLIPMAN.mpg
Format : MPEG-PS
File size : 1.31 GiB
Duration : 46mn 50s
Overall bit rate : 3 999 Kbps
Writing library : (c) 1997-2004 Womble Multimedia, Inc. / MPEG-VCR V3.14 (06/2004) / Jun 27 2004
Video
ID : 224 (0xE0)
Format : MPEG Video
Format version : Version 2
Format profile : Main@Main
Format settings, BVOP : Yes
Format settings, Matrix : Default
Duration : 46mn 50s
Bit rate mode : Variable
Bit rate : 3 727 Kbps
Nominal bit rate : 15.0 Mbps
Width : 704 pixels
Height : 576 pixels
Display aspect ratio : 4:3
Frame rate : 25.000 fps
Standard : PAL
Color space : YUV
Chroma subsampling : 4:2:0
Bit depth : 8 bits
Scan type : Progressive
Scan order : Top Field First
Bits/(Pixel*Frame) : 0.368
Stream size : 1.22 GiB (93%)
Writing library : (c) 1997-2004 Womble Multimedia, Inc. / MPEG-VCR V3.14 (06/2004) / Jun 27 2004
Audio
ID : 192 (0xC0)
Format : MPEG Audio
Format version : Version 1
Format profile : Layer 2
Mode : Dual mono
Mode extension : MS Stereo
Duration : 46mn 50s
Bit rate mode : Constant
Bit rate : 192 Kbps
Channel(s) : 2 channels
Sampling rate : 48.0 KHz
Video delay : -80ms
Stream size : 64.3 MiB (5%)

_________________
[Торрент-статистика]
[Профиль]  [ЛС] 
Показать сообщения:    
Ответить на тему

Текущее время: Сегодня 18:21

Часовой пояс: GMT + 4



Вы не можете начинать темы
Вы не можете отвечать на сообщения
Вы не можете редактировать свои сообщения
Вы не можете удалять свои сообщения
Вы не можете голосовать в опросах
Вы не можете прикреплять файлы к сообщениям
Вы не можете скачивать файлы