Северный ветер / серии: 1-8 из 8 (Владислав Романов) [2009 г., Криминальная, Драма, DVDRip]

Ответить на тему
 
Автор
Сообщение

awk05 ®

Пол:

Стаж: 4 года 5 месяцев

Сообщений: 1352

Репутация: 275 [+] [-]

Откуда: Западная Украина Ривне

Пост 27-Дек-2013 23:57

[Цитировать] 

--Северный ветер-- Год выпуска: 2009
Жанр: Криминальная, Драма
Сезон/Серия: Сезон:1 /Серия 1-8 из 8
Продолжительность: 8 x ~ 00:43:51
Субтитры: отсутствуют--Режиссер: Владислав Романов--В ролях: Анатолий Белый, Евгений Сидихин, Олеся Судзиловская, Владимир Стержаков, Максим Лагашкин, Ирина Скрылёва, Евгений Ефимов--Описание: Молодая шведка Виктория отправляется в Россию, чтобы разузнать подробности гибели своего мужа-журналиста Олафа, погибшего несколько лет назад при странных обстоятельствах. Виктория наверняка знает имя убийцы - это Василий Клинцов. Она хочет посмотреть в глаза человеку, убившего ее мужа, понять, что могло им двигать. Но при встрече видит в Клинцове человека в высшей степени гуманного и доброго, она не верит, что он способен на убийство. Постепенно начинает выяснятся, что действительно Клинцов не убивал Олафа, его подставили, а настоящий убийца находился все это время рядом с Викторией.--Качество: DVDRip
Формат: AVI
Видео кодек: DivX
Аудио кодек: MP3
Видео: DivX, 429 Mbps, 688x384, 16:9, 25.000 fps, Bits/(Pixel*Frame): 0.218
Аудио: MP3, 48.0 KHz, 2 ch, 128 Кбит/с-- --

MediaInfo

General
Complete name : E:\Сериалы новые\Severnij.Veter.08.serij.iz.08.2009.XviD.DVDRip.ELEKTRI4KA\Severnij.Veter.01.serij.iz.08.2009.XviD.DVDRip.ELEKTRI4KA.avi
Format : AVI
Format/Info : Audio Video Interleave
File size : 514 MiB
Duration : 43mn 6s
Overall bit rate : 1 667 Kbps
Writing application : VirtualDubMod 1.5.10.2 (build 2540/release)
Writing library : VirtualDubMod build 2540/release
Video
ID : 0
Format : MPEG-4 Visual
Codec ID : XVID
Codec ID/Hint : XviD
Duration : 43mn 6s
Source duration : 11mn 48s
Bit rate : 429 Mbps
Width : 688 pixels
Height : 384 pixels
Display aspect ratio : 16:9
Frame rate : 25.000 fps
Color space : YUV
Chroma subsampling : 4:2:0
Compression mode : Lossy
Bits/(Pixel*Frame) : 64.950
Stream size : 35.4 GiB
Audio
ID : 1
Format : MPEG Audio
Codec ID : 55
Codec ID/Hint : MP3
Duration : 43mn 6s
Bit rate : 128 Kbps
Channel count : 2 channels
Sampling rate : 48.0 KHz
Compression mode : Lossy
Stream size : 40.5 GiB
Alignment : Aligned on interleaves
Interleave, duration : 40 ms (1.00 video frame)
Interleave, preload duration : 504 ms

_________________


Последний раз редактировалось: awk05 (2013-12-28 02:40), всего редактировалось 2 раз(а)
[Торрент-статистика]
[Профиль]  [ЛС] 
Показать сообщения:    
Ответить на тему

Текущее время: Сегодня 08:37

Часовой пояс: GMT + 4



Вы не можете начинать темы
Вы не можете отвечать на сообщения
Вы не можете редактировать свои сообщения
Вы не можете удалять свои сообщения
Вы не можете голосовать в опросах
Вы не можете прикреплять файлы к сообщениям
Вы не можете скачивать файлы