Шаповалов / Сезон: 1 / Серии: 1-16 из 16 (Илья Максимов (II)) [2012, Детектив, Криминал, SATRip]

Ответить на тему
 
Автор
Сообщение

awk05 ®

Пол:

Стаж: 4 года 5 месяцев

Сообщений: 1352

Репутация: 275 [+] [-]

Откуда: Западная Украина Ривне

Пост 27-Дек-2013 23:52

[Цитировать] 

--Шаповалов-- Год выпуска: 2012
Производство: Россия "Моторфильм"
Жанр: Детектив, Криминал
Сезон/Серия: Сезон:1 /Серия 1-16 из 16
Продолжительность: 16 х ~ 00:43:00
Субтитры: Нет--Режиссёр: Илья Максимов (II)--В ролях: Александр Балуев, Евгений Пронин, Екатерина Стриженова, Валерий Баринов, Наталия Лесниковская, Николай Сердцев, Александр Кузнецов, Михаил Скачков, Дмитрий Буренков, Александр Сергеев (IV), Александра Живова, Наталья Бардо, Вероника Лысакова, Александр Числов, Андрей Москвичев, Дмитрий Артаев, Александр Сигуев, Денис Березин, Макс Уральский, Максим Дромашко, Кристина Савина, Маргарита Иванова-Донская (IV)--Описание: Майор милиции Юрий Шаповалов трудится оперативником в одном из столичных ОВД. Начальство навязывает ему в помощники вчерашнего выпускника юрфака, молодого оперативника по фамилии Гусь. Герои притираются друг к другу, однако сближение не мешает им продолжать конфликтовать по любому поводу.
Помимо работы в уголовном розыске, у Шаповалова есть ещё один, нелегальный, источник дохода: за помощью к Шаповалову, имеющему заслуженную репутацию классного сыщика, то и дело обращаются многочисленные знакомые и знакомые знакомых. По их просьбе он проводит неофициальные расследования. Причём берётся Шаповалов не за всё подряд, а лишь за те дела, которые представляют для него особый интерес, профессиональный и, что тоже играет не последнюю роль, финансовый.
Вниманием со стороны женщин Шаповалов не обделён. Он же поддерживает длительные отношения с Анной, женой весьма состоятельного человека, который за границей проводит больше времени, чем на родине.
Гибель бывшей жены вносит существенные коррективы в жизнь героя: пятнадцатилетняя дочь Маша переезжает к нему, а вместе с ней появляются новые заботы, проблемы и родительские обязанности. Теперь он уже не может позволить себе, как раньше, в любой момент забыться с помощью алкоголя, чтобы хоть на время заглушить не дающее ему покоя чувство вины--Реклама отсутствует!
Качество: SATRip
Формат: AVI
Видео кодек: XviD
Аудио кодек: MP3
Видео: MPEG4, XviD, 720x400 (16/9), 25.000 fps, 1 700 Kbps (0.236 bit/pixel)
Аудио: 48 kHz, MPEG Layer 3, 2 ch, ~192 kbps--

MI

General
Complete name : I:\ЗАКАЧКИ\Shapovalov.(01-16.seriya.iz.16).2012.XviD.SATRip\Shapovalov.(15.seriya.iz.16).2012.XviD.SATRip.avi
Format : AVI
Format/Info : Audio Video Interleave
File size : 584 MiB
Duration : 42mn 54s
Overall bit rate : 1 902 Kbps
Writing application : VirtualDubMod 1.5.10.3 | www.virtualdub-fr.org || (build 2550/release)
Writing library : VirtualDubMod build 2550/release
Video
ID : 0
Format : MPEG-4 Visual
Format profile : Advanced Simple@L5
Format settings, BVOP : 2
Format settings, QPel : No
Format settings, GMC : No warppoints
Format settings, Matrix : Default (MPEG)
Codec ID : XVID
Codec ID/Hint : XviD
Duration : 42mn 54s
Bit rate : 1 700 Kbps
Width : 720 pixels
Height : 400 pixels
Display aspect ratio : 16:9
Frame rate : 25.000 fps
Color space : YUV
Chroma subsampling : 4:2:0
Bit depth : 8 bits
Scan type : Progressive
Compression mode : Lossy
Bits/(Pixel*Frame) : 0.236
Stream size : 522 MiB (89%)
Writing library : XviD 1.2.1 (UTC 2008-12-04)
Audio
ID : 1
Format : MPEG Audio
Format version : Version 1
Format profile : Layer 3
Codec ID : 55
Codec ID/Hint : MP3
Duration : 42mn 54s
Bit rate mode : Constant
Bit rate : 192 Kbps
Channel(s) : 2 channels
Sampling rate : 48.0 KHz
Compression mode : Lossy
Stream size : 58.9 MiB (10%)
Alignment : Aligned on interleaves
Interleave, duration : 40 ms (1.00 video frame)
Interleave, preload duration : 504 ms

Скриншоты


_________________
[Торрент-статистика]
[Профиль]  [ЛС] 
Показать сообщения:    
Ответить на тему

Текущее время: Сегодня 10:09

Часовой пояс: GMT + 4



Вы не можете начинать темы
Вы не можете отвечать на сообщения
Вы не можете редактировать свои сообщения
Вы не можете удалять свои сообщения
Вы не можете голосовать в опросах
Вы не можете прикреплять файлы к сообщениям
Вы не можете скачивать файлы