Приключения солдата Ивана Чонкина / Сезон1 / Серии: 1-8 из 8 (Алексей Кирющенко) [2007, комедия, DVDRip]

Ответить на тему
 
Автор
Сообщение

awk05 ®

Пол:

Стаж: 4 года 5 месяцев

Сообщений: 1352

Репутация: 275 [+] [-]

Откуда: Западная Украина Ривне

Пост 27-Дек-2013 23:46

[Цитировать] 

--Приключения солдата Ивана Чонкина -- Год выпуска: 2007
Производство: Россия ООО Элефант
Жанр: комедия
Сезон/Серия: Сезон:1 /Серия 1-8 из 8
Продолжительность: 8 х~ по 00:44:00
Субтитры: нет--Режиссёр: Алексей Кирющенко--В ролях: Анатолий Гущин, Геннадий Хазанов, Алексей Булдаков, Мария Аронова, Ольга Прокофьева, Евгений Воскресенский, Борис Каморзин, Татьяна Кравченко, Алексей Кирющенко, Андрей Носков--Описание: Экранизация известного романа В.Войновича "Жизнь и невероятные приключения красноармейца Ивана Чонкина". Действие сериала разворачивается в 1941 году в одном из колхозов СССР. Красноармеец Чонкин забрасывается в село для охраны важного военного объекта - неисправного аэроплана. Охрана аэроплана затягивается на неопределенный срок, красноармеец фактически становится простым жителем села. Но не все в селе так считают...
Сериал также как и роман является едкой сатирой на нелепые стороны советской эпохи, высмеивает армейские порядки, советскую номенклатуру и просто не очень умных граждан. За свой роман Войнович непрерывно подвергался травле в СССР и в конце концов в 1980 году фактически был выслан из страны.--Качество: DVDRip
Формат: AVI
Видео кодек:XviD
Аудио кодек: AC3
Видео: 720x432 (1.67:1), 25 fps, XviD build 50 ~1 372 kbps avg, 0.176 bit/pixel
Аудио: 48 kHz, AC3 Dolby Digital, 3/2 (L,C,R,l,r) + LFE ch, ~448.00 kbps avg

MI

General
Complete name : E:\Сериалы новые\Prikljuchenija.soldata.Ivana.Chonkina.8.serij.iz.8.2007.DVDRip.KinozalSatTV\Prikljuchenija.soldata.Ivana.Chonkina.1.serija.iz.8.2007.DVDRip.KinozalSatTV.avi
Format : AVI
Format/Info : Audio Video Interleave
File size : 600 MiB
Duration : 44mn 4s
Overall bit rate : 1 904 Kbps
Writing application : VirtualDubMod 1.5.4.1 (build 2178/release)
Writing library : VirtualDubMod build 2178/release
Video
ID : 0
Format : MPEG-4 Visual
Format profile : Advanced Simple@L5
Format settings, BVOP : 1
Format settings, QPel : No
Format settings, GMC : No warppoints
Format settings, Matrix : Custom
Codec ID : XVID
Codec ID/Hint : XviD
Duration : 44mn 4s
Bit rate : 1 372 Kbps
Width : 720 pixels
Height : 432 pixels
Display aspect ratio : 1.667
Frame rate : 25.000 fps
Color space : YUV
Chroma subsampling : 4:2:0
Bit depth : 8 bits
Scan type : Progressive
Compression mode : Lossy
Bits/(Pixel*Frame) : 0.176
Stream size : 432 MiB (72%)
Writing library : XviD 1.2.1 (UTC 2008-12-04)
Audio
ID : 1
Format : AC-3
Format/Info : Audio Coding 3
Mode extension : CM (complete main)
Format settings, Endianness : Big
Codec ID : 2000
Duration : 44mn 4s
Bit rate mode : Constant
Bit rate : 448 Kbps
Channel count : 6 channels
Channel positions : Front: L C R, Side: L R, LFE
Sampling rate : 48.0 KHz
Bit depth : 16 bits
Compression mode : Lossy
Stream size : 141 MiB (24%)
Alignment : Split accross interleaves
Language : Russian

_________________
[Торрент-статистика]
[Профиль]  [ЛС] 
Показать сообщения:    
Ответить на тему

Текущее время: Сегодня 19:42

Часовой пояс: GMT + 4



Вы не можете начинать темы
Вы не можете отвечать на сообщения
Вы не можете редактировать свои сообщения
Вы не можете удалять свои сообщения
Вы не можете голосовать в опросах
Вы не можете прикреплять файлы к сообщениям
Вы не можете скачивать файлы