Стервы / Сезон: 1 / Серии: 1-32 из 32 (Артем Марков, Филипп Коршунов, Виталий Скородумов) [2012, криминал, SATRip]

Ответить на тему
 
Автор
Сообщение

awk05 ®

Пол:

Стаж: 4 года 5 месяцев

Сообщений: 1352

Репутация: 275 [+] [-]

Откуда: Западная Украина Ривне

Пост 25-Дек-2013 21:26

[Цитировать] 

--Стервы-- Год выпуска: 2012
Производство: Россия ООО "ППК"
Жанр: криминал
Сезон/Серия: Сезон:1 /Серия 1-32 из 32
Продолжительность: 32 х 00:42:42
Субтитры: нет--Режиссёр: Артем Марков, Филипп Коршунов, Виталий Скородумов--В ролях: Янина Бугрова, Лариса Лужина, Софья Игнатова,Галина Виноградова, Ян Воробьев, Андрей Денисов,Дмитрий Митюрич, Сара Окс, Дмитрий Чукин, Владислав Шкляев, Роман Чора, Оксана Большева, Андрей Зайцев (II), Андрей Терешков, Владимир Мельников, Николай Алипа, Анастасия Сова-Егорова, Павел Данилов, Леся Кудряшова, Роман Павлушев--Описание: В отделе нравов при МВД есть особое подразделение, о существовании которого знает только только полковник милиции Игнатов. Через него поступают в отдел задания, связанные с особыми преступлениями, такими как секс трафик, порнобизнес и др.---Качество: SATRip
Формат: AVI
Видео кодек: XviD
Аудио кодек: MP3
Видео: Xvid 704x448 25.00fps 1 630 Kbps [Bits/(Pixel*Frame): 0.207]
Аудио: MPEG Audio Layer 3 48000Hz stereo 128kbps--

СОДЕРЖАНИЕ СЕРИЙ

Отдел
В стриптиз-клубе, принадлежащем Мяснику - организатору транспортировки девушек в секс-рабство, погибает агент Кристи, работавшая под видом стриптизерши. В Отделе по борьбе с секс-трафиком (ОБПС) гибель агента - ЧП. Руководитель, Олег Морозов по кличке Дед, объявляет срочный сбор группы: - мозг Отдела Феликс и опытных агентов Лору, Надежду и Ольгу. Отдел работает под прикрытием спортклуба. В Отдел поступает задание добыть компромат на Реутова - документы на транспортировку секс-рабынь. Реутов связан с Мясником. Компромат находится в машине, которую случайно под заказ угоняет молодая воровка-профи Ника. За Никой начинается охота как со стороны Отдела, так и со стороны бандитов.
Вербовка
Изучая содержимое папки, Ника понимает, насколько она ценна, и у неё зарождается план. В обмен на папку она хочет получить информацию о пропавшей сестре Полине. В реализации этого плана на помощь к ней приходит ее друг Пашка. Ника, при помощи многоходовой комбинации, выходит на Реутова. В это время Дед, просчитав Нику, опережает ее на несколько ходов. Он моделирует ситуацию таким образом, что Ника в классически выстроенной комбинации оказывается виновной в смерти милиционера (мнимой). В результате ловушка захлопнулась - Ника с папкой у Морозова. В сцене разговора Ники и Деда выясняется, что с этой папкой связаны их общие интересы: Дед освобождает девушек из секс-рабства, а Ника, возможно, находит сестру...
Подготовка
У Лоры затянувшийся роман с мужчиной средних лет, он театральный критик. И зовут его Оскар Леонидович. Зачем он ей нужен? Даже она не может ответить себе на этот вопрос. Скорее всего, он восполняет ту брешь, которая образовалась в её слишком приземленной грязной жизни. Она с ним отдыхает душой, часами слушая его трепотню о высоком... Наутро, после очередного такого свидания, она приходит в отдел... Дед представляет Нику Отделу. Ее задание - стать участницей конкурса красоты и победить. Стервы Нику принимают настороженно. Тем не менее, приказы Морозова не обсуждаются. Феликс обучает Нику шпионским навыкам. А Лора берт на себя обучение Ники хорошим манерам. Хотя времени на это очень мало...
Конкурс красоты
Конкурс красоты в Улан-Удэ. Яркая мишура. Красивые девушки. Главная задача Ники - вращаясь среди участниц конкурса, собирать информацию, которая может дать выход на секс-трафик. Во время подготовки к конкурсу Ника и Алмаз становятся подругами. Они поддерживают друг друга в террариуме красоток-моделей, где сломанные каблуки, язвительные замечания и другие гадости - обычная ежедневная практика. Стервы подстраховывают Нику на месте. Морозов с Феликс остаются в Москве. У Деда есть информация о том, что главная цель порнобаронов - украсть королеву красоты...

MI

Complete name : D:\Stervi\Stervi-01.avi
Format : AVI
Format/Info : Audio Video Interleave
File size : 540 MiB
Duration : 42mn 42s
Overall bit rate : 1 768 Kbps
Writing application : VirtualDubMod 1.5.10.2 (build 2540/release)
Writing library : VirtualDubMod build 2540/release
Video
ID : 0
Format : MPEG-4 Visual
Format profile : Advanced Simple@L5
Format settings, BVOP : 2
Format settings, QPel : No
Format settings, GMC : No warppoints
Format settings, Matrix : Default (H.263)
Muxing mode : Packed bitstream
Codec ID : XVID
Codec ID/Hint : XviD
Duration : 42mn 42s
Bit rate : 1 630 Kbps
Width : 704 pixels
Height : 448 pixels
Display aspect ratio : 1.571
Frame rate : 25.000 fps
Color space : YUV
Chroma subsampling : 4:2:0
Bit depth : 8 bits
Scan type : Progressive
Compression mode : Lossy
Bits/(Pixel*Frame) : 0.207
Stream size : 498 MiB (92%)
Writing library : XviD 58
Audio
ID : 1
Format : MPEG Audio
Format version : Version 1
Format profile : Layer 3
Mode : Joint stereo
Codec ID : 55
Codec ID/Hint : MP3
Duration : 42mn 42s
Bit rate mode : Constant
Bit rate : 128 Kbps
Channel(s) : 2 channels
Sampling rate : 48.0 KHz
Compression mode : Lossy
Stream size : 39.1 MiB (7%)
Alignment : Aligned on interleaves
Interleave, duration : 40 ms (1.00 video frame)
Interleave, preload duration : 504 ms

Скриншоты


_________________
[Торрент-статистика]
[Профиль]  [ЛС] 
Показать сообщения:    
Ответить на тему

Текущее время: Сегодня 08:36

Часовой пояс: GMT + 4



Вы не можете начинать темы
Вы не можете отвечать на сообщения
Вы не можете редактировать свои сообщения
Вы не можете удалять свои сообщения
Вы не можете голосовать в опросах
Вы не можете прикреплять файлы к сообщениям
Вы не можете скачивать файлы