Мошенники (Виталий Москаленко) [2006 г., Авантюрная комедия, DVDRip]

Ответить на тему
 
Автор
Сообщение

awk05 ®

Пол:

Стаж: 4 года 5 месяцев

Сообщений: 1352

Репутация: 275 [+] [-]

Откуда: Западная Украина Ривне

Пост 25-Дек-2013 15:07

[Цитировать] 

--Мошенники -- Год выпуска: 2006
Производство: Россия, M.G. Media Group Inc.
Жанр: Авантюрная комедия
Сезон/серия: Сезон1/ серии 1-8 из 8
Продолжительность: 8 x ~ 00:50:00--Режиссер: Виталий Москаленко--В ролях: Алексей Гуськов, Олеся Судзиловская, Станислав Дужников, Ольга Вечкилева, Валентин Смирнитский, Игорь Верник, Лев Дуров, Сергей Степанченко, Альберт Филозов--Описание: Четверо обаятельных мошенников - современных Робин Гудов, случайно оказываются втянутыми в одно и то же дело. Компьютерный гений и мастер на все руки Павел (Алексей Гуськов), умница и красавица Наталья Олеся Судзиловская , бесстрашная авантюристка Марина (Ольга Вечкилева) и примкнувший к ним курьер Василий (Станислав Дужников), отныне решают работать вместе. Впереди у них несколько головокружительных афер сколь опасных, столь и увлекательных.
Каждая серия этой авантюрной комедии - сложная и остроумная афера, мастерски исполненная четверкой главных героев. Криминальный гений Паша Макинтош и его команда - смелы, находчивы и благородны. А их жертвы - наркоторговцы, контрабандисты, преступные олигархи - крайне несимпатичны. Действие сопровождается множеством трюков, веселых гэгов, неожиданными поворотами сюжетных линий.--Качество: DVDRip
Формат: AVI
Видео кодек: XVID
Аудио кодек: AC-3
Видео: XVID, 1700 Кбит/сек, 704x432, 25,000 кадров/сек, Бит/(Пиксели*Кадры) : 0.224
Аудио: AC-3, 48,0 КГц, 6 ch Front: L C R, Side: L R, LFE, 448 Кбит/сек-- --

Описание серий

1 серия. Профессиональные мошенники Паша Макинтош и красавица Наталья независимо друг от друга начинают охоту на деньги коррумпированного чиновника. Но заветный миллион, который каждый их них уже видит у себя в кармане, крадет мелкая воровка Марина. Чиновник "заказывает" Марину бандитам. Павел и Наталья объединяют свои усилия, чтобы отнять у Марины добычу…
2 серия. Понимая, что бандиты ищут их днем и ночью, Паша с подельниками решает затаиться на время. Однако, узнав, что преступники организовали вывоз ценных икон за рубеж, мошенники осторожно приступают к сбору "компромата". Вскоре Паша придумывает виртуозную комбинацию, как одним выстрелом убить двух зайцев: не дать иконам уйти за границу и сдать всех "врагов" милиции…
3 серия. Бандиты под руководством Харченко похищают из Эрмитажа картины "малых голландцев". Оригиналы продают богатым бизнесменам. Затем покупателю предлагается отреставрировать картину, в результате клиент получает отличную копию, а оригинал выгодно перепродается. Один из организаторов аферы замышляет обмануть остальных и сбежать с оригиналами. Мошенники не могут равнодушно смотреть на творящееся безобразие…
4 серия. Накануне выборов губернатора Сибири, жена действующего губернатора Михеева Серафима прилетает в Москву. Здесь, люди сибирского магната Маховикова, поддерживающие конкурента Михеева Харламкина, подсылают к ней жиголо Пирогова. Цель ясна – скомпрометировать бедную женщину. Страх разоблачения сделает ее послушным оружием в их руках. Но по недоразумению бандиты вместо Серафимы начинают шантажировать очень похожую на нее Марину…
5 серия. Мошенники приступают к новой операции. Их цель – наказать и обобрать до нитки подлеца и убийцу Сарайкина. Его бывший соратник, а ныне злейший враг Брюховец, охотно предоставляет Паше необходимую информацию. Однако Сарайкин не собирается капитулировать без борьбы…
6 серия. Бывший председатель колхоза просит Мошенников вернуть имущество крестьянам и наказать злодея Мясищева, присвоившего их земли. Паша и его команда всегда готовы помочь в борьбе за правое дело…
7 серия. Братья Замарайкины ловко прикрывают свой наркобизнес производством шампуней и мазей. Узнав об этом, Мошенники устраивают ловушку предприимчивым бизнесменам. Открыв аналогичную линию производства таких же шампуней, они вынуждают братьев выкупить несуществующий завод. Дальше – дело техники…
8 серия. Контрабандисты решают использовать Павла и Наталью для провоза бриллиантов через границу. Мошенники быстро понимают механизм работы аферистов: одни оставляют ограненные камни в бачке туалета в Шереметьево, другие забирают их и кладут не ограненные. Приходится нашей четверке самой заняться изготовлением поддельных бриллиантов…

MediaInfo:

Общее
Полное имя : Мошенники\Moshenniki\Moshenniki 02.avi
Формат : AVI
Формат/Информация : Audio Video Interleave
Размер файла : 796 Мбайт
Продолжительность : 51 м.
Общий поток : 2158 Кбит/сек
Программа кодирования : VirtualDubMod 1.5.10.2 (build 2540/release)
Видео
Идентификатор : 0
Формат : MPEG-4 Visual
Профиль формата : Advanced Simple@L5
Параметр BVOP формата : 2
Параметр QPel формата : Нет
Параметр GMC формата : Без точки перехода
Параметр матрицы формата : Default (MPEG)
Идентификатор кодека : XVID
Идентификатор кодека/Подсказка : XviD
Продолжительность : 51 м.
Битрейт : 1700 Кбит/сек
Ширина : 704 пикселя
Высота : 432 пикселя
Соотношение сторон : 1,630
Частота кадров : 25,000 кадров/сек
Цветовое пространство : YUV
Субдискретизация насыщенности : 4:2:0
Битовая глубина : 8 бит
Тип развёртки : Прогрессивная
Метод сжатия : С потерями
Бит/(Пиксели*Кадры) : 0.224
Размер потока : 627 Мбайт (79%)
Библиотека кодирования : XviD 1.2.1 (UTC 2008-12-04)
Аудио
Идентификатор : 1
Формат : AC-3
Формат/Информация : Audio Coding 3
Расширение режима : CM (complete main)
Идентификатор кодека : 2000
Продолжительность : 51 м.
Вид битрейта : Постоянный
Битрейт : 448 Кбит/сек
Каналы : 6 каналов
Расположение каналов : Front: L C R, Side: L R, LFE
Частота : 48,0 КГц
Битовая глубина : 16 бит
Метод сжатия : С потерями
Размер потока : 165 Мбайт (21%)
Выравнивание : Разделение по промежуткам
Продолжительность промежутка : 40 мс. (1,00 видеокадр)
Время предзагрузки промежутка : 500 мс.

Скриншоты


_________________
[Торрент-статистика]
[Профиль]  [ЛС] 
Показать сообщения:    
Ответить на тему

Текущее время: Сегодня 10:08

Часовой пояс: GMT + 4



Вы не можете начинать темы
Вы не можете отвечать на сообщения
Вы не можете редактировать свои сообщения
Вы не можете удалять свои сообщения
Вы не можете голосовать в опросах
Вы не можете прикреплять файлы к сообщениям
Вы не можете скачивать файлы