Лютый / Сезон: 1 / Серии: 1-8 из 8 (Станислав Мареев) [2013 г., Боевик, криминальный фильм, WEB-DLRip]

Ответить на тему
 
Автор
Сообщение

AleksSin ®

Пол:

Стаж: 2 года 11 месяцев

Сообщений: 23

Репутация: 26 [+] [-]

Откуда: Донбасс

Пост 15-Дек-2013 15:25

[Цитировать] 

Лютый
Год выпуска: 2013 г.
Страна: Россия
Жанр: Боевик, криминальный фильм
Сезон/Серия: 1 сезон: 1-8 серия из 8
Продолжительность: 00:45:27
Перевод: Не требуется
Cубтитры: нет
Режиссер: Станислав Мареев
В ролях: Владимир Епифанцев, Ирина Апексимова, Елена Панова, Михаил Трухин, Дарья Мельникова, Павел Цицилин, Елизавета Зарубина, Олег Фомин, Фёдор Лавров, Михаил Богдасаров, Никита Митасов
Описание: Главного героя, полицейского Максима Лютова, долго считали убитым. Когда он возвращается к работе в полиции и становится новым начальником убойного отдела, у многих коллег это вызывает шок. Старые знакомые смотрят на него как на ожившего покойника. Новые сотрудники отделения с трудом воспринимают его своеобразные манеры и внешний вид. Лютов груб, странно выглядит, странно шутит, и методы работы у него странные.

Сэмпл: http://multi-up.com/930486
Качество: WEB-DLRip (Исх. WEB-DL 720p)
Формат видео: AVI
Видео кодек: XviD
Аудио кодек: AC3
Видео: 720x400 (1.80:1), 25 fps, XviD build 50 ~1500 kbps avg, 0.21 bit/pixel
Аудио: 44.100 kHz, AC3 Dolby Digital, 2/0 (L,R) ch, ~192.00 kbps avg

MediaInfo

Общее
Полное имя : K:\Лютый. 2013. WEB-DLRip\Лютый. 2013. WEB-DLRip. 6 серия.avi
Формат : AVI
Формат/Информация : Audio Video Interleave
Размер файла : 553 Мбайт
Продолжительность : 45 м.
Общий поток : 1702 Кбит/сек
Программа кодирования : VirtualDubMod 1.5.10.3 | www.virtualdub-fr.org || (build 2550/release)
Библиотека кодирования : VirtualDubMod build 2550/release
Видео
Идентификатор : 0
Формат : MPEG-4 Visual
Профиль формата : Advanced Simple@L5
Параметр BVOP формата : 2
Параметр QPel формата : Нет
Параметр GMC формата : Без точки перехода
Параметр матрицы формата : Выборочная
Идентификатор кодека : XVID
Идентификатор кодека/Подсказка : XviD
Продолжительность : 45 м.
Битрейт : 1500 Кбит/сек
Ширина : 720 пикс.
Высота : 400 пикс.
Соотношение сторон : 16:9
Частота кадров : 25,000 кадр/сек
Цветовое пространство : YUV
Подвыборка цветности : 4:2:0
Битовая глубина : 8 бит
Тип развёртки : Прогрессивная
Метод сжатия : С потерями
Бит/(Пиксели*Кадры) : 0.208
Размер потока : 488 Мбайт (88%)
Библиотека кодирования : XviD 1.2.1 (UTC 2008-12-04)
Аудио
Идентификатор : 1
Формат : AC-3
Формат/Информация : Audio Coding 3
Расширение режима : CM (complete main)
Идентификатор кодека : 2000
Продолжительность : 45 м.
Вид битрейта : Постоянный
Битрейт : 192 Кбит/сек
Каналы : 2 канала
Расположение каналов : Front: L R
Частота : 44,1 КГц
Битовая глубина : 16 бит
Метод сжатия : С потерями
Задержка видео : 34 мс.
Размер потока : 62,4 Мбайт (11%)
Выравнивание : Разделение по промежуткам
Продолжительность промежутка : 40 мс. (1,00 видеокадр)
Время предзагрузки промежутка : 500 ms

Скриншоты


_________________
[Торрент-статистика]
[Профиль]  [ЛС] 
Показать сообщения:    
Ответить на тему

Текущее время: Сегодня 19:36

Часовой пояс: GMT + 4



Вы не можете начинать темы
Вы не можете отвечать на сообщения
Вы не можете редактировать свои сообщения
Вы не можете удалять свои сообщения
Вы не можете голосовать в опросах
Вы не можете прикреплять файлы к сообщениям
Вы не можете скачивать файлы