Черные кошки / Серии: 1-12 из 12 (Евгений Лаврентьев) [2013 г., Детектив, драма, военный, история, WEB-DLRip]

Ответить на тему
 
Автор
Сообщение

AleksSin ®

Пол:

Стаж: 2 года 11 месяцев

Сообщений: 23

Репутация: 26 [+] [-]

Откуда: Донбасс

Пост 15-Дек-2013 15:05

[Цитировать] 

Черные кошки
Год выпуска: 2013
Страна: Россия. «Марс Медиа»,<<Продюсерский центр>>
Жанр: Детектив, драма, военный, история
Сезон/Серия: 01-12 из 12
Продолжительность: ~0:45:00
Режиссер: Евгений Лаврентьев
В ролях: Павел Деревянко, Марина Коняшкина, Ольга Ломоносова, Евгений Сидихин, Павел Трубинер, Роман Лукьянов, Алексей Комашко, Михаил Хмуров, Мария Антонова (II), Вадим Норштейн, Богдан Колесник, Сергей Деньга, Виктор Демковский
Описание: 1947 год. Ростов-на-Дону. В стране, обескровленной войной, царят голод и разруха. Хлеб - в буквальном смысле на вес золота, а стоимость человеческой жизни равняется нулю. Растет число преступлений, появляются бандитские группировки, которые контролируют целые города. Подобно черным кошкам, они появляются незамеченными под покровом ночи, и легко уходят с места преступления. Банда, действующая в Ростове, грабит продовольственный склад, оставляя кровавые следы. Сотрудник уголовного розыска майор Егор Драгун подозревает, что в ней действуют не обычные уголовники. Его подозрения оправдываются: под бандитов, запутывая следы, маскируются бывшие сотрудники вермахта. Их истинная цель - захват известного немецкого ученого, который находится в лагере для военнопленных на территории Ростова-на-Дону. В Германии ученый работал над созданием атомной бомбы. Если вывезти его в Аргентину, куда после войны переместились фашистские группировки, и дать закончить работу, может начаться ядерная война. Цель Драгуна и его подручных - найти и обезвредить преступников. Помощь приходит, откуда не ждали - со стороны настоящих уголовников. Объединившись ради общей цели, они не дадут развязать новую войну.

Сэмпл: http://multi-up.com/932172
Тип релиза: WEB-DLRip (Исх. WEB-DL 1080p)
Контейнер: AVI
Видео кодек: XviD
Аудио кодек: AC3 (Dolby Digital)
Видео: 688x384 (1.79:1), 25 fps, XviD build 50 ~1850 kbps avg, 0.28 bit/pixel
Аудио: 48 kHz, AC3 Dolby Digital, 2/0 (L,R) ch, ~192.00 kbps avg

MediaInfo

Общее
Полное имя : K:\Черные кошки. 2013. WEB-DLRip\Черные кошки. 2013. WEB-DLRip. 7 серия.avi
Формат : AVI
Формат/Информация : Audio Video Interleave
Размер файла : 654 Мбайт
Продолжительность : 44 м.
Общий поток : 2052 Кбит/сек
Программа кодирования : VirtualDubMod 1.5.10.3 | www.virtualdub-fr.org || (build 2550/release)
Библиотека кодирования : VirtualDubMod build 2550/release
Видео
Идентификатор : 0
Формат : MPEG-4 Visual
Профиль формата : Advanced Simple@L5
Параметр BVOP формата : 2
Параметр QPel формата : Нет
Параметр GMC формата : Без точки перехода
Параметр матрицы формата : Выборочная
Идентификатор кодека : XVID
Идентификатор кодека/Подсказка : XviD
Продолжительность : 44 м.
Битрейт : 1850 Кбит/сек
Ширина : 688 пикс.
Высота : 384 пикс.
Соотношение сторон : 16:9
Частота кадров : 25,000 кадр/сек
Цветовое пространство : YUV
Подвыборка цветности : 4:2:0
Битовая глубина : 8 бит
Тип развёртки : Прогрессивная
Метод сжатия : С потерями
Бит/(Пиксели*Кадры) : 0.280
Размер потока : 589 Мбайт (90%)
Библиотека кодирования : XviD 1.2.1 (UTC 2008-12-04)
Аудио
Идентификатор : 1
Формат : AC-3
Формат/Информация : Audio Coding 3
Расширение режима : CM (complete main)
Идентификатор кодека : 2000
Продолжительность : 44 м.
Вид битрейта : Постоянный
Битрейт : 192 Кбит/сек
Каналы : 2 канала
Расположение каналов : Front: L R
Частота : 48,0 КГц
Битовая глубина : 16 бит
Метод сжатия : С потерями
Размер потока : 61,2 Мбайт (9%)
Выравнивание : Разделение по промежуткам
Продолжительность промежутка : 40 мс. (1,00 видеокадр)
Время предзагрузки промежутка : 500 ms

Скриншоты

Раздача ведётся путём добавления новых серий

Раздача ведётся путём добавления новых серий; при каждом добавлении создаётся новый торрент. Чтобы начать докачку новой серии, пользователям необходимо сделать следующее:
(1) остановить скачивание,
(2) удалить старый торрент у себя из клиента (старые серии удалять не надо),
(3) скачать новый торрент и запустить его у себя в клиенте вместо старого, при этом указать клиенту путь в старую папку куда и должно происходить скачивание новых серий.
Ваш клиент при этом должен произвести хеширование (проверку) старой папки (если не производит сам - помогите ему сделать это), и будет докачивать только те серии которых у вас ещё нет. Старые серии при этом не удаляются, а продолжают раздаваться!
Eсли вы уже удалили старые серии, то предотвратить повторную закачку старых серий можно, отжав галочку в соответствующих местах при запуске нового торрента. По возможности, желательно не удалять старые серии как можно дольше чтобы релизёр не столько продолжал раздавать старые серии, а смог сконцентрироваться на новых.
Добавлена 9-12 серия

_________________


Последний раз редактировалось: AleksSin (2013-12-19 19:40), всего редактировалось 3 раз(а)
[Торрент-статистика]
[Профиль]  [ЛС] 

nova1980

Пол:

Стаж: 5 лет

Сообщений: 820

Репутация: 523 [+] [-]

Откуда: Одесса Мама

Пост 15-Дек-2013 18:32 (спустя 3 часа)

[Цитировать] 

AleksSin, Укажите в названии количество серий, какой сезон если знаете. А так все чудесно!

_________________
Мои Раздачи
[Торрент-статистика]
[Профиль]  [ЛС] 
Показать сообщения:    
Ответить на тему

Текущее время: Сегодня 20:39

Часовой пояс: GMT + 4



Вы не можете начинать темы
Вы не можете отвечать на сообщения
Вы не можете редактировать свои сообщения
Вы не можете удалять свои сообщения
Вы не можете голосовать в опросах
Вы не можете прикреплять файлы к сообщениям
Вы не можете скачивать файлы