Кремень. Освобождение / Сезон 2 / Серии: 1-4 из 4 (Владимир Епифанцев) [2013, боевик, криминальный фильм, SATRip]

Ответить на тему
 
Автор
Сообщение

awk05 ®

Пол:

Стаж: 4 года 5 месяцев

Сообщений: 1352

Репутация: 275 [+] [-]

Откуда: Западная Украина Ривне

Пост 08-Дек-2013 21:20

[Цитировать] 

--Кремень. Освобождение-- Год выпуска: 2013
Производство: Студия "Тримира", "ДТ Продакшн"
Жанр: Боевик, криминальный фильм
Продолжительность: ~0:50:00 серия
Субтитры: нет--Режиссёр: Вячеслав Лисневский--В ролях: Владимир Епифанцев, Денис Яковлев, Анастасия Веденская, Инна Хотеенкова, Сергей Векслер, Михаил Горевой, Сергей Фролов, Максим Браматкин, Анна Цуканова-Котт, Дмитрий Горевой, Иван Добронравов, Виктория Адельфина, Елизавета Поплавская--Описание: Отставной майор Андрей Шаманов, после долгих лет службы, учится жить мирной жизнью. Но когда бывшим коллегам требуется помощь, даже счастье с любимой женщиной не способно заставить его отказаться от опасного задания: расследовать причину гибели группы спецназа, проводившей учение в горах, где скрывается группировка контрабандистов. В ходе работы Андрея ждут испытания: преступники похищают его возлюбленную и шантажируют героя, на что опытный военный Шаманов решает ответить штурмом. Удачно спланировав операцию, Андрей находит свою Настю, освобождая вместе с ней еще нескольких заложников. Но главная опасность впереди – преступники не позволят Андрею, а также нескольким свидетелям просто так сбежать с тайной базы…--Качество: SATRip
Формат: AVI
Видео кодек: XviD
Аудио кодек: MP3
Видео: 704x384 (16:9), 25 fps, XviD build 46 ~1150 Кбит/сек, 0.17 bit/pixel
Аудио: 48 kHz, MPEG Layer 3, 2 ch, ~128.00 kbps avg-- --

MI

Общее
Полное имя : D:\Торренты\ФИЛЬМЫ торента\Кремень. Освобождение. 2012. SATRip\Кремень. Освобождение.(1.serija).2013.SATRip.avi
Формат : AVI
Формат/Информация : Audio Video Interleave
Размер файла : 497 Мбайт
Продолжительность : 53 м.
Общий поток : 1288 Кбит/сек
Программа кодирования : VirtualDubMod 1.5.10.2 (build 2540/release)
Библиотека кодирования : VirtualDubMod build 2540/release
Видео
Идентификатор : 0
Формат : MPEG-4 Visual
Профиль формата : Simple@L3
Параметр BVOP формата : Нет
Параметр QPel формата : Нет
Параметр GMC формата : Без точки перехода
Параметр матрицы формата : Default (H.263)
Идентификатор кодека : XVID
Идентификатор кодека/Подсказка : XviD
Продолжительность : 53 м.
Битрейт : 1150 Кбит/сек
Ширина : 704 пикс.
Высота : 384 пикс.
Соотношение сторон : 16:9
Частота кадров : 25,000 кадр/сек
Цветовое пространство : YUV
Подвыборка цветности : 4:2:0
Битовая глубина : 8 бит
Тип развёртки : Прогрессивная
Метод сжатия : С потерями
Бит/(Пиксели*Кадры) : 0.170
Размер потока : 444 Мбайт (89%)
Библиотека кодирования : XviD 1.1.2 (UTC 2006-11-01)
Аудио
Идентификатор : 1
Формат : MPEG Audio
Версия формата : Version 1
Профиль формата : Layer 3
Режим : Joint stereo
Расширение режима : MS Stereo
Идентификатор кодека : 55
Идентификатор кодека/Подсказка : MP3
Продолжительность : 53 м.
Вид битрейта : Постоянный
Битрейт : 128 Кбит/сек
Каналы : 2 канала
Частота : 48,0 КГц
Метод сжатия : С потерями
Размер потока : 49,4 Мбайт (10%)
Выравнивание : Разделение по промежуткам
Продолжительность промежутка : 40 мс. (1,00 видеокадр)
Время предзагрузки промежутка : 500 ms
Библиотека кодирования : LAME3.98

_________________
[Торрент-статистика]
[Профиль]  [ЛС] 
Показать сообщения:    
Ответить на тему

Текущее время: Сегодня 06:24

Часовой пояс: GMT + 4



Вы не можете начинать темы
Вы не можете отвечать на сообщения
Вы не можете редактировать свои сообщения
Вы не можете удалять свои сообщения
Вы не можете голосовать в опросах
Вы не можете прикреплять файлы к сообщениям
Вы не можете скачивать файлы