Провинциал / Серии: 1-16 из 16 (Арменак Назикян) [2013, Криминал, боевик, SATRip]

Ответить на тему
 
Автор
Сообщение

awk05 ®

Пол:

Стаж: 4 года 5 месяцев

Сообщений: 1352

Репутация: 275 [+] [-]

Откуда: Западная Украина Ривне

Пост 07-Дек-2013 18:37

[Цитировать] 

--Провинциал-- Год выпуска: 2013
Производство: «Триикс Медиа»
Жанр: Криминал, боевик
Продолжительность: ~00:45:00 серия
Субтитры: отсутствуют--Режиссёр: Арменак Назикян--В ролях: Александр Барановский, Владимир Стеклов, Ян Цапник, Михаил Елисеев, Роман Агеев, Андрей Терентьев, Елена Симонова, Вера Баханкова, Сергей Кошонин, Эрик Кения, Игорь Иванов, Егор Бакулин, Антон Васильев (III), Вадим Волков, Владимир Галась, Александр Черкашин, Константин Клюквин, Дмитрий Лебедев, Геннадий Меньшиков, Сергей Шкарбан, Евгений Булгаков--Описание: Главный герой Сергей Андреев в одночасье лишается всей своей семьи. Его отца — директора небольшого провинциального завода убивают. Мать не выдерживает и тоже умирает. Когда Сергей возвращается домой он остается один на один со своей бедой. С самого начала он был уверен, что к смерти отца причастен олигарх Груздев. Сергей принимает решение — уехать жить в Санкт-Петербург и отомстить Груздеву. В Питере, начиная практически свою жизнь заново, Сергею удается приблизиться к Груздеву и его банку. Сергей обладает аналитическим умом, он очень сметлив и быстр на решения, может придумывать «многоходовые» операции. Он затевает комбинацию по банкротству «банка противника» и встречается с Груздевым. И только тогда Сергей задает себе вопрос — а причастен ли бывший банкир к смерти его отца Петра Андреева? И что делать дальше?--Качество: SATRip
Формат: AVI
Видео кодек: XviD
Аудио кодек: MP3
Видео: 720x400 (16:9), 25 fps, XviD build 50 ~1600 kbps avg, 0.223 bit/pixel
Аудио: 48 kHz, MPEG Layer 3, 2 ch, ~128.00 kbps avg--Реклама отсутствует--

MI

General
Complete name : Provincial.2013.SATRip\Provincial.2013.SATRip_01.seriya.avi
Format : AVI
Format/Info : Audio Video Interleave
File size : 551 MiB
Duration : 44mn 44s
Overall bit rate : 1 722 Kbps
Writing application : VirtualDubMod 1.5.10.2 (build 2540/release)
Writing library : VirtualDubMod build 2540/release
Video
ID : 0
Format : MPEG-4 Visual
Format profile : Advanced Simple@L5
Format settings, BVOP : 1
Format settings, QPel : No
Format settings, GMC : No warppoints
Format settings, Matrix : Custom
Codec ID : XVID
Codec ID/Hint : XviD
Duration : 44mn 44s
Bit rate : 1 584 Kbps
Width : 720 pixels
Height : 400 pixels
Display aspect ratio : 16:9
Frame rate : 25.000 fps
Color space : YUV
Chroma subsampling : 4:2:0
Bit depth : 8 bits
Scan type : Progressive
Compression mode : Lossy
Bits/(Pixel*Frame) : 0.220
Stream size : 507 MiB (92%)
Writing library : XviD 1.2.1 (UTC 2008-12-04)
Audio
ID : 1
Format : MPEG Audio
Format version : Version 1
Format profile : Layer 3
Mode : Joint stereo
Codec ID : 55
Codec ID/Hint : MP3
Duration : 44mn 44s
Bit rate mode : Constant
Bit rate : 128 Kbps
Channel(s) : 2 channels
Sampling rate : 48.0 KHz
Compression mode : Lossy
Stream size : 41.0 MiB (7%)
Alignment : Aligned on interleaves
Interleave, duration : 40 ms (1.00 video frame)
Interleave, preload duration : 504 ms
Writing library : LAME3.98r
Encoding settings : -m j -V 4 -q 2 -lowpass 17 -b 128

Скриншоты


_________________
[Торрент-статистика]
[Профиль]  [ЛС] 
Показать сообщения:    
Ответить на тему

Текущее время: Сегодня 22:16

Часовой пояс: GMT + 4



Вы не можете начинать темы
Вы не можете отвечать на сообщения
Вы не можете редактировать свои сообщения
Вы не можете удалять свои сообщения
Вы не можете голосовать в опросах
Вы не можете прикреплять файлы к сообщениям
Вы не можете скачивать файлы