Под прикрытием / (Серии: 1-12 из 12) (Тимур Алпатов) [2012, Криминал, HDTVRip-AVC]

Ответить на тему
 
Автор
Сообщение

awk05 ®

Пол:

Стаж: 4 года 5 месяцев

Сообщений: 1352

Репутация: 275 [+] [-]

Откуда: Западная Украина Ривне

Пост 07-Дек-2013 17:56

[Цитировать] 

--Под прикрытием-- Год выпуска: 2012
Производство: Россия, "DT Production"
Жанр: Криминал
Продолжительность: 12 х ~00:50:00
Субтитры: нет--Режиссёр: Тимур Алпатов--В ролях: Сергей Газаров, Владимир Яглыч, Владислав Котлярский, Гурам Баблишвили, Софья Торосян, Максим Важов, Карина Разумовская, Михаил Солодко, Эдуард Рябинин, Денис Кудрявцев, Анатолий Отраднов, Егор Вадов, Глория Августинович--Описание: Высокобюджетный приключенческий боевик от режиссера «Глухаря». Что будет, если во время операции по внедрению в преступную группировку офицер ФСБ влюбится в дочь главаря? ФСБ на протяжении длительного времени следила за известной преступной организацией, и последние донесения вызвали серьезные опасения: объемы денежных средств, проходящие через эту группировку, просто ужасают. Эта криминальная группировка занимается всеми видами преступного бизнеса, начиная от обычного вымогательства и предоставления "крыши" коммерсантам, завершая проведением многоуровневых афер с госсредствами. Все попытки разоблачить преступников и предать справедливому суду заканчиваются провалом. Существует лишь один способ арестовать преступников - внедрение крота в криминальную группировку, чтобы изнутри добыть необходимую информацию и всевозможные улики. В качестве агента был выбран молодой сотрудник оперативного отдела. Все шло, как и планировалось, пока с внедренным агентом не произошла оказия - он по уши влюбился в дочь главаря криминальной группировки. И теперь вся операция находится под угрозой срыва.-- --Качество: HDTVRip-AVC
Формат: MKV
Видео кодек: H.264
Аудио кодек: AAC
Видео: MPEG4 Video (H264) 1024x576, ~ 3557 kbps, 25.00fps
Аудио: AAC, 2 канала, 48,0 КГц, ~192 kbps, VBR--Сторонней рекламы нет!--

MediaInfo

Общее
Уникальный идентификатор : 221861880389443174688387998793065210671 (0xA6E90B3CC4D229D6B39A64980A6EA32F)
Полное имя : E:\Downloads\55\Под прикрытием HDTVRip AVC\Под прикрытием 01_серия_HDTVRip_AVC_by_Серый1779.mkv
Формат : Matroska
Размер файла : 1,33 Гбайт
Продолжительность : 50 м.
Общий поток : 3771 Кбит/сек
Дата кодирования : UTC 2013-04-09 03:04:21
Программа кодирования : mkvmerge v4.9.1 ('Ich will') built on Sep 21 2011 17:48:11
Библиотека кодирования : libebml v1.2.1 + libmatroska v1.2.0
Видео
Идентификатор : 1
Формат : AVC
Формат/Информация : Advanced Video Codec
Профиль формата : High@L4.0
Параметр CABAC формата : Да
Параметр ReFrames формата : 9 кадров
Идентификатор кодека : V_MPEG4/ISO/AVC
Продолжительность : 50 м.
Битрейт : 3504 Кбит/сек
Ширина : 1024 пикс.
Высота : 576 пикс.
Соотношение сторон : 16:9
Частота кадров : 25,000 кадр/сек
Цветовое пространство : YUV
Подвыборка цветности : 4:2:0
Битовая глубина : 8 бит
Тип развёртки : Прогрессивная
Бит/(Пиксели*Кадры) : 0.238
Размер потока : 1,24 Гбайт (93%)
Библиотека кодирования : x264 core 118 r2085 8a62835
Настройки программы : cabac=1 / ref=9 / deblock=1:-3:-3 / analyse=0x3:0x133 / me=umh / subme=9 / psy=1 / psy_rd=1.00:0.15 / mixed_ref=1 / me_range=32 / chroma_me=1 / trellis=2 / 8x8dct=1 / cqm=0 / deadzone=21,11 / fast_pskip=0 / chroma_qp_offset=-3 / threads=6 / sliced_threads=0 / nr=0 / decimate=1 / interlaced=0 / bluray_compat=0 / constrained_intra=0 / bframes=9 / b_pyramid=2 / b_adapt=2 / b_bias=0 / direct=1 / weightb=1 / open_gop=0 / weightp=2 / keyint=250 / keyint_min=25 / scenecut=40 / intra_refresh=0 / rc=crf / mbtree=0 / crf=19.0 / qcomp=0.60 / qpmin=0 / qpmax=69 / qpstep=4 / ip_ratio=1.40 / pb_ratio=1.30 / aq=2:0.70
Основные цвета : BT.470-6 System B, BT.470-6 System G, BT.601-6 625, BT.1358 625, BT.1700 625 PAL, BT.1700 625 SECAM
Характеристики трансфера : BT.470-6 System B, BT.470-6 System G
Коэффициенты матрицы : BT.470-6 System B, BT.470-6 System G, BT.601-6 625, BT.1358 625, BT.1700 625 PAL, BT.1700 625 SECAM, IEC 61966-2-4 601
Аудио
Идентификатор : 2
Формат : MPEG Audio
Версия формата : Version 1
Профиль формата : Layer 2
Идентификатор кодека : A_MPEG/L2
Идентификатор кодека/Подсказка : MP2
Продолжительность : 50 м.
Вид битрейта : Постоянный
Битрейт : 192 Кбит/сек
Каналы : 2 канала
Частота : 48,0 КГц
Метод сжатия : С потерями
Размер потока : 69,4 Мбайт (5%)

Скриншоты


_________________
[Торрент-статистика]
[Профиль]  [ЛС] 
Показать сообщения:    
Ответить на тему

Текущее время: Сегодня 10:10

Часовой пояс: GMT + 4



Вы не можете начинать темы
Вы не можете отвечать на сообщения
Вы не можете редактировать свои сообщения
Вы не можете удалять свои сообщения
Вы не можете голосовать в опросах
Вы не можете прикреплять файлы к сообщениям
Вы не можете скачивать файлы