Ледниковый период / Сезон:1 / Серия 1-8 из 8 (Александр Буравский) [2002 г., боевик, драма, криминал, DVDRip]

Ответить на тему
 
Автор
Сообщение

awk05 ®

Пол:

Стаж: 4 года 5 месяцев

Сообщений: 1352

Репутация: 275 [+] [-]

Откуда: Западная Украина Ривне

Пост 06-Дек-2013 19:47

[Цитировать] 

--Ледниковый период-- Год выпуска: 2002
Страна: Россия, Телекомпания "ВЕРСИЯ" по заказу ОРТ
Жанр: боевик, драма, криминал
Сезон/Серия: Сезон:1 / Серия 1-8 из 8
Продолжительность: 8 x 00:51:00
Субтитры: отсутствуют--Режиссер: Александр Буравский--В ролях: Иpинa Poзaнoвa, Aлeкcaндp Aбдулoв, Mapия Mиpoнoвa, Игopь Лифaнoв, Mapaт Бaшapoв, Игopь Бoчкин, Влaдимиp Meньшoв, Eлeнa Кopeнeвa, Aндpeй Cмoлякoв, Cepгeй Acтaхoв, Aлeкcaндp Mapтынoв, Пaвeл Дepeвянкo, Aлeкcaндp Peзaлин, Юлия Чичepинa, Aлeкcaндp Ceмчeв, Mapия Apoнoвa, Влaдимиp Литвинoв, Aлeкcaндp Пecкoв, Зуpaб Кипшидзe, Aндpeй Mapтынoв--Описание: В середине 1990-х приказом Министра внутренних дел Российской Федерации при МУРе был создан отдел по борьбе с организованной преступностью и бандитизмом. Группа состояла из 12 человек, двух старых машин «Жигули» и одного мобильного телефона. Обязанности и. о. начальника отдела получил подполковник уголовного розыска Игорь Фёдорович Клепко (Александр Абдулов). В это же время, в Москве появилась и начала активно действовать банда Алексахина (Игорь Лифанов) по кличке Рокки. За короткое время бандитам удалось расправиться со своими «конкурентами» и взять под контроль один из «спальных» районов столицы.
Свою работу Отдел по борьбе с бандитизмом начал с разработки этого Рокки и настолько успешно, что уже через месяц почти половина банды, вместе со своим главарём, оказалась на скамье подсудимых. Начальство Клепко было очень довольно — если так и дальше пойдут дела.
Но тут случилось непредвиденное — процесс над Рокки провалился. Свидетели обвинения исчезли: кто-то просто отказался от дачи показаний, кто-то погиб при невыясненных обстоятельствах. Вся группа обвиняемых была освобождена из под стражи прямо в зале суда — и уже вечером бандиты весело гуляли с девочками и сорили деньгами.
На фоне этой истории идут трудные поиски героями фильма моральных опор и устоев в то тяжёлое время.--Качество видео: DVDRip
Формат видео: AVI
Видео кодек: MPEG4, DivX 5
Аудио кодек: MP3
Видео: MPEG4, DivX 5, 560x352 (1.591), 25.000 fps, 870 Kbps (0.177 bit/pixel)
Аудио: MP3, 44.1 KHz, 1 ch, 77.5 Kbps, VBR, 16 bits [Русский] -- --

Тех. данные (MI)

General
Complete name : E:\СЕРИАЛЫ\Lednikovyj.Period.2002.DivX.DVDRip\Lednikovyj.Period1.2002.DivX.DVDRip.avi
Format : AVI
Format/Info : Audio Video Interleave
File size : 350 MiB
Duration : 50mn 58s
Overall bit rate mode : Variable
Overall bit rate : 960 Kbps
Writing application : Nandub v1.0rc2
Writing library : Nandub build 1853/release
Video
ID : 0
Format : MPEG-4 Visual
Format settings, BVOP : 1
Format settings, QPel : No
Format settings, GMC : No warppoints
Format settings, Matrix : Default (H.263)
Muxing mode : Packed bitstream
Codec ID : DX50
Codec ID/Hint : DivX 5
Duration : 50mn 58s
Bit rate : 836 Kbps
Width : 560 pixels
Height : 352 pixels
Display aspect ratio : 16:10
Frame rate : 25.000 fps
Color space : YUV
Chroma subsampling : 4:2:0
Bit depth : 8 bits
Scan type : Progressive
Compression mode : Lossy
Bits/(Pixel*Frame) : 0.170
Stream size : 305 MiB (87%)
Writing library : DivX 5.0.2 (UTC 2002-05-16)
Audio
ID : 1
Format : MPEG Audio
Format version : Version 1
Format profile : Layer 3
Codec ID : 55
Codec ID/Hint : MP3
Duration : 50mn 58s
Bit rate mode : Variable
Bit rate : 77.5 Kbps
Minimum bit rate : 48.0 Kbps
Channel count : 1 channel
Sampling rate : 44.1 KHz
Compression mode : Lossy
Delay relative to video : 26ms
Stream size : 28.2 MiB (8%)
Alignment : Aligned on interleaves
Writing library : LAME3.92
Encoding settings : -m m -V 2 -q 2 -lowpass 18.7 --vbr-old -b 48

Главные роли

Александр Абдулов — подполковник милиции Игорь Федорович Клепко
Ирина Розанова — Нина Долгачёва, прокурор
Мария Миронова — светская львица Любовь Кипренская, подруга Гурама
Игорь Лифанов — глaварь бандитской группировки Василий Алексахин по прозвищу Рокки
Марат Башаров — Саша Каплевич, опер
Андрей Смоляков — Александр Евгеньевич Скорик (Погон), бывший милиционер, ныне киллер
Сергей Астахов — адвокат Астангов
Павел Деревянко — опер Женя Чистяков
Александр Резалин — Валентин, известный музыкант, муж Долгачёвой
Юлия Чичерина — певица Анюта
Игорь Бочкин — генерал милиции Колобов, старый друг Клепко и Долгачевой, крестный отец их дочери
Владимир Меньшов — министр МВД
Александр Семчев — зам. премьер-министра Петр Свешников
Андрей Мартынов — Кичигин, генерал милиции, замминистра МВД
Мария Аронова — свидетельница
Владимир Литвинов — Оганезов, полковник ФСБ
Александр Песков — опер Федя Туреев
Зураб Кипшидзе — Гурам Павликадзе, авторитет
Андрей Батуханов — авторитет Моня
Сергей Галкин — бандит Ёрш
Борис Репетур — адвокат Асмоловский
Луиза Мосендз — журналистка
Рафаэль Мукаев — бандит
Светлана Тимофеева-Летуновская — жена Рокки
Леонид Тимцуник — Блин
Сосо Павлиашвили — Гиви, шофер Гурама
Егор Пазенко
Александр Числов — Савва
Анна Воронова — барменша
Никита Логинов — бандит Мороз
Александр Баширов — Клещ
Альберт Филозов — Яков Каплевич
Николай Лещуков — Леха
Александр Бухаров — Ленчик, бандит
Владимир Епископосян — Султан, лидер чеченской группировки
Жан Даниэль — метрдотель
Сергей Степанченко — Барон, вор в законе
Резо Гигинеишвили — Дато
Дэвид Гамбург — Ярек, торговец оружием
Наталья Панова — подруга Ярека
Дмитрий Шеховцов — Коля, сын Рокки
Владимир Зайцев — полковник Каморин

Кадры из фильма




_________________
[Торрент-статистика]
[Профиль]  [ЛС] 
Показать сообщения:    
Ответить на тему

Текущее время: Сегодня 16:43

Часовой пояс: GMT + 4



Вы не можете начинать темы
Вы не можете отвечать на сообщения
Вы не можете редактировать свои сообщения
Вы не можете удалять свои сообщения
Вы не можете голосовать в опросах
Вы не можете прикреплять файлы к сообщениям
Вы не можете скачивать файлы