Зверобой-3 / Сезон: 3 Серии: 1 - 32 из 32 (Вячеслав Судов) [2011, криминал, SATRip]

Ответить на тему
 
Автор
Сообщение

awk05 ®

Пол:

Стаж: 4 года 5 месяцев

Сообщений: 1352

Репутация: 275 [+] [-]

Откуда: Западная Украина Ривне

Пост 05-Дек-2013 22:15

[Цитировать] 

--Зверобой-3-- Год выпуска: 2011
Производство: ООО „Пирамида"
Жанр: криминал
Продолжительность: ~0:43:00 серия
Субтитры: нет--Режиссёр: Вячеслав Судов--В ролях: Дмитрий Ульянов, Юлия Мельникова, Юлия Шарикова, Эвклид Кюрдзидис, Валентина Ананьина, Эдуард Флёров, Андрей Вальц и др.--Описание: В новом сезоне Иван Прохоров, он же — Зверобой, переезжает в Москву, куда его переводят по службе. В столице его опыт используется более широко, а дар приобретает новую мощь, ведь теперь Зверобой — сотрудник спецотдела, занимающегося раскрытием преступлений особой сложности, которые могут нанести серьезный ущерб безопасности страны. Руководство отдела считает Ивана уникальным сотрудником. Его подключают к операции по выявлению сети наркодилеров и задержанию членов преступной организации, к расследованию дела о взрыве на железной дороге и крушении поезда, к поиску причин загадочной гибели известной модели и к распутыванию хитроумных интриг дельцов от медицины. Также благодаря Зверобою удается предотвратить попытку продажи за рубеж новейшей научной разработки, оцениваемой как достояние страны.
Несмотря на связи в столь серьезных структурах, жизнь Зверобоя по-прежнему в опасности, ведь на него охотится Капкан — хладнокровный убийца, известный зрителям еще по второй части сериала. Враг стал еще опаснее: после лекарственных инъекций у него началась амнезия и теперь он живет под новой легендой.
А Зверобой тем временем все больше овладевает своим даром, его видения-предсказания по-прежнему возникают произвольно, но при сильной концентрации он может вызвать их появление в нужное время. Но так как эти видения отрывочны, и общая картина все равно не складывается, Иван вынужден использовать все основные методы сыска и обращаться за помощью к друзьям и коллегам — начальнику спецотдела и напарнику Зверобоя Григорию Корнилову, об отваге и бесстрашии которого ходят легенды, и виртуозному компьютерщику Алику, обладающему недюжинными аналитическими способностями.--СЭМПЛ--Качество: SATRip
Формат: AVI
Видео кодек: XviD
Аудио кодек: MP3
Видео: Xvid 704x400 25.00fps 1682kbps [Bits/(Pixel*Frame): 0.239]
Аудио: MPEG Audio Layer 3 48000Hz stereo 128kbps--

MI

Complete name : D:\Zveroboj-3\Zveroboj-3-01-02.avi
Format : AVI
Format/Info : Audio Video Interleave
File size : 1.09 GiB
Duration : 1h 25mn
Overall bit rate : 1 820 Kbps
Writing application : VirtualDubMod 1.5.10.2 (build 2540/release)
Writing library : VirtualDubMod build 2540/release
Video
ID : 0
Format : MPEG-4 Visual
Format profile : Advanced Simple@L5
Format settings, BVOP : Yes
Format settings, QPel : No
Format settings, GMC : No warppoints
Format settings, Matrix : Default (H.263)
Muxing mode : Packed bitstream
Codec ID : XVID
Codec ID/Hint : XviD
Duration : 1h 25mn
Bit rate : 1 682 Kbps
Width : 704 pixels
Height : 400 pixels
Display aspect ratio : 16:9
Frame rate : 25.000 fps
Resolution : 8 bits
Colorimetry : 4:2:0
Scan type : Progressive
Bits/(Pixel*Frame) : 0.239
Stream size : 1.01 GiB (92%)
Writing library : XviD 1.2.1 (UTC 2008-12-04)
Audio
ID : 1
Format : MPEG Audio
Format version : Version 1
Format profile : Layer 3
Mode : Joint stereo
Codec ID : 55
Codec ID/Hint : MP3
Duration : 1h 25mn
Bit rate mode : Constant
Bit rate : 128 Kbps
Channel(s) : 2 channels
Sampling rate : 48.0 KHz
Stream size : 78.5 MiB (7%)
Alignment : Aligned on interleaves
Interleave, duration : 40 ms (1.00 video frame)
Interleave, preload duration : 504 ms

Скриншоты

«СЕЗОН 1» «СЕЗОН 2» «СЕЗОН 3»

_________________
[Торрент-статистика]
[Профиль]  [ЛС] 
Показать сообщения:    
Ответить на тему

Текущее время: Сегодня 06:22

Часовой пояс: GMT + 4



Вы не можете начинать темы
Вы не можете отвечать на сообщения
Вы не можете редактировать свои сообщения
Вы не можете удалять свои сообщения
Вы не можете голосовать в опросах
Вы не можете прикреплять файлы к сообщениям
Вы не можете скачивать файлы