Зверобой-2 / Сезон: 2 Серии: 1-32 из 32 (Александр Калугин) [2010, Боевик, детектив, DVDRip] Страницы: 1

Ответить на тему
 
Автор
Сообщение

awk05 ®

Пол:

Стаж: 4 года 5 месяцев

Сообщений: 1352

Репутация: 275 [+] [-]

Откуда: Западная Украина Ривне

Пост 05-Дек-2013 22:09

[Цитировать] 

--Зверобой-2-- Год выпуска: 2010
Производство: "Пирамида"
Жанр: Боевик, детектив
Продолжительность: ~ 00:45:00 сери
Субтитры: Отсутствуют--Режиссёр: Александр Калугин--В ролях: Дмитрий Ульянов, Ольга Ломоносова, Александр Кулямин, Павел Сборщиков, Михаил Васьков, Екатерина Олькина, Юлия Шарикова, Светлана Потанина, Эдуард Флёров, Андрей Вальц, Алексей Костерев, Вера Фалютинская, Олег Чудницов-Хартулари, Дмитрий Янышевский, Александр Воробьёв (II), Виктория Герасимова, Елена Калинина (IV), Андрей Капустин, Владимир Лаптев, Игорь Литовкин (II), Вероника Лысакова, Ирэна Морозова, Андрей Сорокин (II), Вячеслав Титов, Александр Наумов, Екатерина Щанкина, Анна Литкенс, Игорь Филиппов, Сергей Шустицкий, Софья Ардова, Владимир Малюгин, Александр Бобров, Владимир Гостев, Сергей Гурьев, Олег Шеремет-Доска, Валентина Ананьина, Андрей Снежко, Ирина Чипиженко, Алексей Боченин, Рауль Ганеев, Михаил Тощев, Юлия Цибульникова, Денис Филимонов, Валерий Гурьев, Татьяна Полосина, Игорь Фурманюк, Олег Филипчик, Александр Базоев, Александр Борисов (II), Сергей Сосновский--Описание: Продолжение 32-серийного телевизионного фильма «Зверобой». Герои первого «Зверобоя» - Иван Прохоров, Толян, Николс, Мария, следователь Фищук – снова вынуждены собраться вместе, чтобы дать отпор обнаглевшему криминалитету, восстановить справедливость, помочь слабым.
Зверобой все больше, хотя и с огромным трудом, овладевает своим даром, его видения-предсказания по-прежнему возникают произвольно, но при сильной концентрации, он может вызвать их появление в нужное время. Но так как они отрывочны, и общая картина все равно не складывается, он вынужден использовать все основные методы сыска, обращаться за помощью к друзьям и коллегам. Зверобой знакомится с человеком, способным объяснить природу его дара и научить управлять им. Зрителя ждут головокружительные приключения, героям сериала предстоит решать трудные задачи, чтобы защитить не только своих близких, но и обычных горожан от несправедливости.--Сэмпл--Формат: AVI
Видео кодек: XviD
Аудио кодек: MP3
Видео: 704x400 (16:9), 25 fps, XviD MPEG-4 codec, BitRate: ~1538 Kbps, 0.218 bit/pixel
Аудио: 48000 kHz, MPEG 1 or 2 Audio Layer 3 (MP3), 128kbps--

MI

General
Complete name : C:\Users\Steinbrenner\Videos\Zveroboy 2_2010_DVDRip_SVAT\Zveroboy 2_01 seriya_2010_DVDRip_SVAT.avi
Format : AVI
Format/Info : Audio Video Interleave
File size : 552 MiB
Duration : 46mn 3s
Overall bit rate : 1 676 Kbps
Writing application : VirtualDubMod 1.5.10.3 | www.virtualdub-fr.org || (build 2550/release)
Writing library : VirtualDubMod build 2550/release
Video
ID : 0
Format : MPEG-4 Visual
Format profile : Advanced Simple@L5
Format settings, BVOP : 2
Format settings, QPel : No
Format settings, GMC : No warppoints
Format settings, Matrix : Custom
Codec ID : XVID
Codec ID/Hint : XviD
Duration : 46mn 3s
Bit rate : 1 538 Kbps
Width : 704 pixels
Height : 400 pixels
Display aspect ratio : 16:9
Frame rate : 25.000 fps
Color space : YUV
Chroma subsampling : 4:2:0
Bit depth : 8 bits
Scan type : Progressive
Compression mode : Lossy
Bits/(Pixel*Frame) : 0.218
Stream size : 507 MiB (92%)
Writing library : XviD 61
Audio
ID : 1
Format : MPEG Audio
Format version : Version 1
Format profile : Layer 3
Codec ID : 55
Codec ID/Hint : MP3
Duration : 46mn 3s
Bit rate mode : Constant
Bit rate : 128 Kbps
Channel(s) : 2 channels
Sampling rate : 48.0 KHz
Compression mode : Lossy
Stream size : 42.2 MiB (8%)
Alignment : Aligned on interleaves
Interleave, duration : 40 ms (1.00 video frame)
Interleave, preload duration : 504 ms
Writing library : LAME3.98r
Encoding settings : -m s -V 4 -q 2 -lowpass 17 -b 128

Скриншоты


«СЕЗОН 1» «СЕЗОН 2» «СЕЗОН 3»

_________________
[Торрент-статистика]
[Профиль]  [ЛС] 
Показать сообщения:    
Ответить на тему

Текущее время: Сегодня 04:13

Часовой пояс: GMT + 4



Вы не можете начинать темы
Вы не можете отвечать на сообщения
Вы не можете редактировать свои сообщения
Вы не можете удалять свои сообщения
Вы не можете голосовать в опросах
Вы не можете прикреплять файлы к сообщениям
Вы не можете скачивать файлы