Чёрный Плащ / Darkwing Duck (1-3 сезон, 1-91 серии) (1991) SATRip

Ответить на тему
 
Автор
Сообщение

NeliyZar ®

Пол:

Стаж: 9 лет 3 месяца

Сообщений: 3281

Репутация: 689 [+] [-]

Откуда: Донбасс

Пост 25-Мар-2012 13:47

[Цитировать] 

Чёрный Плащ / Darkwing Duck- Год выпуска: 1991
Жанр: Рисованая анимация, Детский, Приключения
Язык: Русский
Режиссер: Тэд Стоунс / Tad Stones
Продолжительность: 91 серия по 22 минуты
Перевод: Полный дубляж, вкл. песни
Персонажи: Черный Плащ, Гусена, Негадак, Зигзаг, Гога, Мегавольт Квага, ...
Автор перевода: серии 1-89: телеканал РТР, студии "Нота", "Кадр", фирма "СВ-Дубль"; серии 90-91: «Невафильм»
Описание:
Известный и многими любимый мультсериал, главным героем которого является загадочный супергерой-селезень по кличке Чёрный Плащ (ЧП). В борьбе с преступностью ему помогают дочка Гусёна и верный друг пилот Зигзаг. Вас ждут незабываемые приключения, тонны юмора, невероятных трюков и пародий на известные фильмы и киногероев.
Видеокодек: Xvid
Битрейт видео: ~1500-2000 kbps
Размер кадра: 704x528
Качество видео: SATRip
Аудиокодек: MP2
Битрейт аудио: 48 kHz, 2 ch, 256 kbit/s

Список серий

C 01 (s1e01) [52] Тайное становится явным 1
C 02 (s1e02) [53] Тайное становится явным 2
C 03 (s1e10) [01] Не зная броду, не лезь в воду
C 04 (s1e50) [02] Прогулки с Блантом
C 05 (s1e07) [04] Грязные деньги
C 06 (s1e48) [06] Что в имени твоём
C 07 (s2e01) [66] Как сквозь землю провалились
C 08 (s1e04) [08] Муравьиные страсти
C 09 (s2e09) [74] Мозговая атака
C 10 (s2e04) [69] Ночь сыроежек
C 11 (s1e16) [12] Болотная лихорадка
C 12 (s1e18) [13] Проделки Крепыша
C 13 (s1e14) [14] От перемены слагаемых
C 14 (s1e15) [15] Свет! Камера! Мотор!
C 15 (s1e06) [16] Не ходите в Африку гулять
C 16 (s1e08) [17] Слепой рыцарь
C 17 (s1e03) [18] Красавица и репейник
C 18 (s1e22) [19] Два Плаща
C 19 (s1e37) [20] Головастики
C 20 (s1e23) [21] Пауткофобия
C 21 (s2e12) [76] Кистью по жизни
C 22 (s1e29) [23] Опасные игры
C 23 (s1e12) [24] За длинным долларом
C 24 (s2e03) [68] Антиплащ
C 25 (s1e36) [26] Великая сушь
C 26 (s1e28) [27] Война и любовь по Фаренгейту
C 27 (s2e06) [71] Мокрое дело
C 28 (s1e17) [29] Медведь-разбойник
C 29 (s1e25) [31] Мезозойская заварушка
C 30 (s2e08) [73] Ход хамелеона
C 31 (s2e07) [72] Битва титанов
C 32 (s1e11) [33] Парадоксы времени
C 33 (s2e02) [67] Сойти с экрана
C 34 (s2e13) [78] Сен-канарский купец
C 35 (s1e09) [36] Приключения комикса
C 36 (s2e05) [70] На поводу у моды
C 37 (s2e10) [77] Десятый вал
C 38 (s1e26) [39] Чистейшая пакость
C 39 (s1e05) [40] Кошмар на картофельном поле
C 40 (s1e30) [41] Чудище моей мечты
C 41 (s1e34) [42] Всё выше и выше
C 42 (s1e32) [43] Царь игрушек
C 43 (s1e19) [44] Полоса невезения
C 44 (s1e27) [45] Сила есть - ума не надо
C 45 (s1e31) [46] Мошенник на дом
C 46 (s1e20) [47] Утки Правосудия 1
C 47 (s1e21) [48] Утки Правосудия 2
C 48 (s1e35) [49] Антимиры
C 49 (s1e13) [50] Революция бытовой техники
C 50 (s1e40) [51] Чёрный Дублон
C 51 (s1e33) [55] А был ли Чёрный Плащ
C 52 (s1e24) [56] Как пришелец пришельцу
C 53 (s2e11) [75] Поспешишь - людей насмешишь
C 54 (s1e47) [58] Утка исчезает
C 55 (s1e51) [59] Сага о Кваге
C 56 (s1e41) [60] Этот дивный листок календаря
C 57 (s1e39) [61] Кряк разбушевался
C 58 (s1e45) [62] Титаны живут среди нас
C 59 (s1e38) [63] Мастер камуфляжа
C 60 (s1e49) [64] Финт от винта
C 61 (s1e42) [65] Наши в Голливуде
C 62 (s1e53) [03] Как важно быть спокойным
C 63 (s1e44) [05] Два клюва
C 64 (s1e46) [07] Ведьмин день
C 65 (s1e43) [09] Танцы с Бигфутами
C 66 (s1e52) [10] Приключение и наказание
C 67 (s1e54) [11] Пятеро под одним плащом
C 68 (s1e55) [22] Безопасность прежде всего
C 69 (s1e56) [25] Банановые Мозги
C 70 (s1e57) [28] Гадкий гусёнок
C 71 (s1e64) [30] Искусство Кряк Фу
C 72 (s1e59) [32] Неопознанный летающий враг
C 73 (s1e58) [34] Завихрения в истории
C 74 (s1e61) [35] Кряк-Крылатый Колчан
C 75 (s1e65) [37] Проклятие колдуна
C 76 (s1e62) [38] Арестант
C 77 (s1e60) [54] Нисходящая звезда
C 78 (s1e63) [57] Приказано убрать
C 79 (s3e03) [79] Мозговая атака-2
C 80 (s3e02) [80] Потомственные неудачники
C 81 (s3e01) [81] Обаяние ужасного
C 82 (s3e04) [82] Мелодрама в электронном исполнении
C 83 (s3e05) [83] Час быка
C 84 (s3e07) [84] Разгулявшаяся кисть
C 85 (s3e06) [85] Эфирные ведьмы
C 86 (s3e08) [86] Заклинаньице попроще
C 87 (s3e11) [87] Месть мутантов
C 88 (s3e10) [88] Жаркая встреча выпускников
C 89 (s3e09) [89] Криминальный репортаж
C 90 (s3e13) [90] Загадочное ископаемое
C 91 (s3e12) [91] Ресторан Тихая заводь
-

3 варианта нумерации(разъяснение)

Номер без скобок - производственный (хронологический) номер серии.
Номер в круглых скобках (s*e**) - номер показа серий в США (сезон, серия)
Номер в квадратных скобках [**] - номер показа серий в Европе (в т.ч. и в России)
-

Доп. информация:

Все 91 SATRipов с СТС - с высококачественного спутника ! Техданные только в нескольких сериях отличаются от указанных ниже, т.к. несколько серий записано с альтернативных версий СТС (СТС Москва, СТС Екатеринодар). А так почти во всех сериях максимально качественное видео и звук (256 кбит/с.) со спутника. В части серий битрейт видео увеличен до ~2000 kbps. Все серии успешно проверены на бытовом DVD-плеере!
-

MediaInfo

MediaInfo: C 01 (s1e01) 52 Тайное становится явным 1.avi

General
Complete name : МультСериалы\Черный плащ _ Darkwing Duck\C 01 (s1e01) [52] Тайное становится явным 1.avi
Format : AVI
Format/Info : Audio Video Interleave
File size : 274 MiB
Duration : 21mn 49s
Overall bit rate : 1 756 Kbps
Writing application : VirtualDubMod 1.5.10.2 (build 2540/release)
Writing library : VirtualDubMod build 2540/release
Video
ID : 0
Format : MPEG-4 Visual
Format profile : Advanced Simple@L5
Format settings, BVOP : Yes
Format settings, QPel : No
Format settings, GMC : No warppoints
Format settings, Matrix : Default (H.263)
Codec ID : XVID
Codec ID/Hint : XviD
Duration : 21mn 49s
Bit rate : 1 491 Kbps
Width : 704 pixels
Height : 528 pixels
Display aspect ratio : 4:3
Frame rate : 25.000 fps
Color space : YUV
Chroma subsampling : 4:2:0
Bit depth : 8 bits
Scan type : Progressive
Bits/(Pixel*Frame) : 0.160
Stream size : 233 MiB (85%)
Writing library : XviD 1.2.1 (UTC 2008-12-04)
Audio
ID : 1
Format : MPEG Audio
Format version : Version 1
Format profile : Layer 2
Mode : Dual mono
Codec ID : 50
Duration : 21mn 49s
Bit rate mode : Constant
Bit rate : 256 Kbps
Channel(s) : 2 channels
Sampling rate : 48.0 KHz
Stream size : 39.9 MiB (15%)
Alignment : Aligned on interleaves
Interleave, duration : 40 ms (1.00 video frame)
Interleave, preload duration : 504 ms
-

MediaInfo: C 30 (s2e08) 73 Ход хамелеона.avi

General
Complete name : I:\МультСериалы\Черный плащ _ Darkwing Duck\C 30 (s2e08) [73] Ход хамелеона.avi
Format : AVI
Format/Info : Audio Video Interleave
File size : 355 MiB
Duration : 21mn 56s
Overall bit rate : 2 260 Kbps
Writing application : VirtualDubMod 1.5.10.2 (build 2540/release)
Writing library : VirtualDubMod build 2540/release
Video
ID : 0
Format : MPEG-4 Visual
Format profile : Advanced Simple@L5
Format settings, BVOP : Yes
Format settings, QPel : No
Format settings, GMC : No warppoints
Format settings, Matrix : Default (H.263)
Codec ID : XVID
Codec ID/Hint : XviD
Duration : 21mn 56s
Bit rate : 1 994 Kbps
Width : 704 pixels
Height : 528 pixels
Display aspect ratio : 4:3
Frame rate : 25.000 fps
Color space : YUV
Chroma subsampling : 4:2:0
Bit depth : 8 bits
Scan type : Progressive
Bits/(Pixel*Frame) : 0.215
Stream size : 313 MiB (88%)
Writing library : XviD 1.2.1 (UTC 2008-12-04)
Audio
ID : 1
Format : MPEG Audio
Format version : Version 1
Format profile : Layer 2
Mode : Dual mono
Codec ID : 50
Duration : 21mn 56s
Bit rate mode : Constant
Bit rate : 256 Kbps
Channel(s) : 2 channels
Sampling rate : 48.0 KHz
Stream size : 40.2 MiB (11%)
Alignment : Aligned on interleaves
Interleave, duration : 40 ms (1.00 video frame)
Interleave, preload duration : 504 ms
-

MediaInfo: C 90 (s3e13) 90 Загадочное ископаемое.avi

General
Complete name : I:\МультСериалы\Черный плащ _ Darkwing Duck\C 90 (s3e13) [90] Загадочное ископаемое.avi
Format : AVI
Format/Info : Audio Video Interleave
File size : 274 MiB
Duration : 21mn 46s
Overall bit rate : 1 760 Kbps
Writing application : VirtualDubMod 1.5.10.2 (build 2540/release)
Writing library : VirtualDubMod build 2540/release
Video
ID : 0
Format : MPEG-4 Visual
Format profile : Advanced Simple@L5
Format settings, BVOP : Yes
Format settings, QPel : No
Format settings, GMC : No warppoints
Format settings, Matrix : Default (H.263)
Codec ID : XVID
Codec ID/Hint : XviD
Duration : 21mn 46s
Bit rate : 1 494 Kbps
Width : 704 pixels
Height : 528 pixels
Display aspect ratio : 4:3
Frame rate : 25.000 fps
Color space : YUV
Chroma subsampling : 4:2:0
Bit depth : 8 bits
Scan type : Progressive
Bits/(Pixel*Frame) : 0.161
Stream size : 233 MiB (85%)
Writing library : XviD 1.2.1 (UTC 2008-12-04)
Audio
ID : 1
Format : MPEG Audio
Format version : Version 1
Format profile : Layer 2
Mode : Dual mono
Codec ID : 50
Duration : 21mn 46s
Bit rate mode : Constant
Bit rate : 256 Kbps
Channel(s) : 2 channels
Sampling rate : 48.0 KHz
Stream size : 39.9 MiB (15%)
Alignment : Aligned on interleaves
Interleave, duration : 40 ms (1.00 video frame)
Interleave, preload duration : 504 ms
-

Скриншоты:


_________________
Спорить с женщиной не так тяжело, когда понимаешь, что это бесполезно... (Михаил Мамчич)
Исправили раздачу? Отпишитесь модератору в ЛС с ссылкой на релиз.
[Торрент-статистика]
[Профиль]  [ЛС] 
Показать сообщения:    
Ответить на тему

Текущее время: Сегодня 02:55

Часовой пояс: GMT + 4



Вы не можете начинать темы
Вы не можете отвечать на сообщения
Вы не можете редактировать свои сообщения
Вы не можете удалять свои сообщения
Вы не можете голосовать в опросах
Вы не можете прикреплять файлы к сообщениям
Вы не можете скачивать файлы