Дом. Свидание с планетой / Home (Режиссерская версия) [(Янн Артюс-Бертран), 2009 г., Документальный, BDRip 720p]

Ответить на тему
 
Автор
Сообщение

diim ®

Пол:

Стаж: 5 лет 11 месяцев

Сообщений: 1037

Репутация: 112 [+] [-]

Пост 19-Дек-2011 04:17

[Цитировать] 

Дом. Свидание с планетой - [Режиссерская версия] / Home-Фильм был создан специально как призыв к объединению для спасения будущего нашей планеты. Именно поэтому он распространяется бесплатно. Владельцы прав на фильм и его распространение (компании PPR Group и EuropaCorp) также согласились не использовать его в коммерческих целях-Год выпуска: 2009
Страна: Франция
Жанр: документальный
Продолжительность: 01:52:58
Перевод: Профессиональный (полное дублирование)
Русские субтитры: нет
Режиссер: Янн Артюс-Бертран / Yann Arthus Bertrand
В ролях: Ян Артус Бертранд / Yann Arthus-Bertrand, Жак Гамблен / Jacques Gamblin
Описание: Невероятно зрелищный фильм легендарного Янна Артюса-Бертрана демонстрирует зрителю подлинную красоту и величие планеты Земля.
Бескрайняя река Окаванго и могучий вулкан Килиманджаро, девственные пейзажи Исландии и ледяные просторы Антарктиды - вся безграничная палитра красок живого мира с высоты птичьего полета.
Это наш общий дом, который так же удивителен, как и беззащитен перед разрушительной деятельностью человека. Губительные последствия промышленной оккупации, техногенные катастрофы и военные действия наносят неумолимый ущерб планете, раскрывая зрителю реальную ситуацию.
Весь фильм снимался с вертолета на камеру высокого разрешения Cineflex.
За 18 месяцев съемочная группа побывала в 53 странах мира. При этом в некоторых странах, например в Китае и Саудовской Аравии, режиссеру было отказано в проведении воздушной съемки. В Индии половина отснятых материалов была конфискована, а в Аргентине Артюс-Бертрану и его помощникам пришлось провести неделю в тюрьме.
Рождению фильма предшествовали 15 лет работы, в течение которых было создано 500 тысяч фотографий, запечатленных в более чем 100 странах мира, продано 3 миллиона книг, проведено 100 бесплатных open-air-выставок с более чем 100 миллионами посетителей, снято 4 документальных фильма со зрительской аудиторией 5 миллионов человек.
Внимание! Это документальный фильм-рассказ на основе оригинального видеоматериала о том, как режиссёр снимал фильм "Дом. Свидание с планетой". то есть, фильм о фильме (нет, в нём нет видео со съёмочной площадки и интервью актёров, это художественно-документальный фильм о фильме, в котором показаны многие кадры, не вошедшие в оригинальный фильм, и рассуждения режиссера за кадром).
Качество: BDRip
Формат: MKV
Видео кодек: H.264
Аудио кодек: AAC
Видео: AVC / 1280x720p (16:9) / 23,976 fps / 9179 kbps / 0,415 bppf
Аудио 1: Русский 48 kHz, AC3 5.1, 448 kbps
Аудио 2: Французский 48 kHz, AC3 5.1, 448 kbps
Сэмпл (79 MB): http://www.mediafire.com/?f8l2yscfksn4z7o

MediaInfo

General
Complete name : Dom.(Regiserskaja_Versija).2009.x264.BDRip720p.RU.FR.mkv
Format : Matroska
File size : 7.92 GiB
Duration : 1h 53mn
Overall bit rate : 10.0 Mbps
Encoded date : UTC 2011-04-12 19:11:52
Writing application : mkvmerge v4.6.0 ('Still Crazy After All These Years') built on Mar 10 2011 02:50:32
Writing library : libebml v1.2.0 + libmatroska v1.1.0
Video
ID : 1
Format : AVC
Format/Info : Advanced Video Codec
Format profile : High@L4.1
Format settings, CABAC : Yes
Format settings, ReFrames : 3 frames
Format settings, GOP : M=1, N=32
Codec ID : V_MPEG4/ISO/AVC
Duration : 1h 53mn
Bit rate mode : Variable
Bit rate : 9 179 Kbps
Maximum bit rate : 15.0 Mbps
Width : 1 280 pixels
Height : 720 pixels
Display aspect ratio : 16:9
Frame rate : 23.976 fps
Color space : YUV
Chroma subsampling : 4:2:0
Bit depth : 8 bits
Scan type : Progressive
Bits/(Pixel*Frame) : 0.415
Stream size : 7.06 GiB (89%)
Title : Video
Writing library : x264 core 114 r1913 5fd3dce
Encoding settings : cabac=1 / ref=4 / deblock=1:0:0 / analyse=0x3:0x133 / me=hex / subme=7 / psy=1 / psy_rd=1.00:0.00 / mixed_ref=1 / me_range=16 / chroma_me=1 / trellis=1 / 8x8dct=1 / cqm=0 / deadzone=21,11 / fast_pskip=1 / chroma_qp_offset=-2 / threads=6 / sliced_threads=0 / slices=4 / nr=0 / decimate=1 / interlaced=0 / constrained_intra=0 / bframes=3 / b_pyramid=1 / b_adapt=1 / b_bias=0 / direct=1 / weightb=1 / open_gop=2 / weightp=0 / keyint=24 / keyint_min=2 / scenecut=40 / intra_refresh=0 / rc_lookahead=24 / rc=2pass / mbtree=1 / bitrate=9179 / ratetol=1.0 / qcomp=0.60 / qpmin=0 / qpmax=69 / qpstep=4 / cplxblur=20.0 / qblur=0.5 / vbv_maxrate=15000 / vbv_bufsize=15000 / nal_hrd=vbr / ip_ratio=1.40 / aq=1:1.00
Language : English
Color primaries : BT.709-5, BT.1361, IEC 61966-2-4, SMPTE RP177
Transfer characteristics : BT.709-5, BT.1361
Matrix coefficients : BT.709-5, BT.1361, IEC 61966-2-4 709, SMPTE RP177
Audio #1
ID : 2
Format : AC-3
Format/Info : Audio Coding 3
Mode extension : CM (complete main)
Codec ID : A_AC3
Duration : 1h 53mn
Bit rate mode : Constant
Bit rate : 448 Kbps
Channel(s) : 6 channels
Channel positions : Front: L C R, Side: L R, LFE
Sampling rate : 48.0 KHz
Bit depth : 16 bits
Stream size : 363 MiB (4%)
Title : RU
Language : Russian
Audio #2
ID : 3
Format : AC-3
Format/Info : Audio Coding 3
Mode extension : CM (complete main)
Codec ID : A_AC3
Duration : 1h 53mn
Bit rate mode : Constant
Bit rate : 448 Kbps
Channel(s) : 6 channels
Channel positions : Front: L C R, Side: L R, LFE
Sampling rate : 48.0 KHz
Bit depth : 16 bits
Stream size : 363 MiB (4%)
Title : FR
Language : French

Скриншоты

[Торрент-статистика]
[Профиль]  [ЛС] 

Smorgunov

Стаж: 8 лет 2 месяца

Сообщений: 1

Репутация: 0 [+] [-]

Пост 06-Ноя-2012 22:56 (спустя 10 месяцев 18 дней)

[Цитировать] 

Спасибо
[Торрент-статистика]
[Профиль]  [ЛС] 
Показать сообщения:    
Ответить на тему

Текущее время: Сегодня 07:24

Часовой пояс: GMT + 4



Вы не можете начинать темы
Вы не можете отвечать на сообщения
Вы не можете редактировать свои сообщения
Вы не можете удалять свои сообщения
Вы не можете голосовать в опросах
Вы не можете прикреплять файлы к сообщениям
Вы не можете скачивать файлы