Царство растений / Kingdom of Plants (Мартин Уильямс / Martin Williams) [2012 г., Документальный, HDRip] [3 серии из 3] [VO (В.Курдов) + ENG + Sub (rus, eng)]

Ответить на тему
 
Автор
Сообщение

simbais ®

Пол:

Стаж: 6 лет 3 месяца

Сообщений: 647

Репутация: 184 [+] [-]

Откуда: Санкт-Петербург

Пост 24-Фев-2013 23:06

[Цитировать] 

Царство растений / Kingdom of Plants -Страна: Великобритания
Жанр
: Документальный
Год выпуска
: 2012
Продолжительность: 3 x ~00:52:17-Перевод: Одноголосый закадровый В.Курдов
Cубтитры: English, Russian-Режиссер: Мартин Уильямс / Martin Williams
В ролях: Дэвид Аттенборо
Описание: В этом сенсационном документальном цикле, снимавшемся в течение года, сэр Дэвид Аттенборо исследует жизнь растений и их увлекательный мир, от самых причудливых до самых прекрасных его обитателей. Используя превосходно снятые кадры в качестве наглядного сопровождения своего неповторимого стиля повествования, сэр Дэвид прослеживает историю растений от появления их на суше до наших дней, где они играют жизненно важную роль в природе. Перейдя к их временной шкале, он показывает истинную природу растений, которые не менее агрессивные и подвижные, чем животные. Всё это происходит в одном уникальном месте, мире растений в миниатюре, где представлено около 90% всех известных видов – королевских ботанических садах в Кью. Это зрелищное путешествие по царству растений настолько широкомасштабное и захватывающее, что способно удивить даже самых равнодушных к ботанике людей.-Качество видео: HDRip BDRip 720p
Формат видео: AVI-Видео: 720x400 (1.80:1), 23.976 fps, XviD build 50 ~1875 kbps avg, 0.27 bit/pixel
Аудио 1: 48 kHz, AC3 Dolby Digital, 3/2 (L,C,R,l,r) + LFE ch, ~384 kbps | VO
Аудио 2: 48 kHz, AC3 Dolby Digital, 3/2 (L,C,R,l,r) + LFE ch, ~384 kbps | ENG
Формат субтитров: SoftSub (SRT) -отдельно-- --

Episode 1: Life in the Wet Zone / Жизнь во влажном климате

Продолжительность: 00:52:26
Описание: Дэвид начинает свой путь внутри великолепного Дома Пальм, уникального тропического леса в Лондоне.
Здесь, он исследует растения, которые так хорошо приспособлены для мокрой и влажной среде и раскрывает тесные отношения между растениями влажной зоны и животными, которые зависят от них.
Находясь во влажной зоне мира, он показывает, что растения первыми вышли на сушу, а в Доме Кувшинок (Waterlily House) Дэвид показывает, как развивались первый цветы около 140 млн. лет назад.
Наблюдая во времени, как в калейдоскопе, дыхание этих самых примитивных цветов, набухание и цветение в 3D, он способен собрать воедино самые первые шаги, что растения использовали для себя, чтобы привлечь в первый раз на работу по сбору своей драгоценной пыльцы разнообразных насекомых.
Дэвид открывает подсказки, чтобы ответить на вопрос, что ставил Чарльз Дарвин в тупик: как цветущие растения так быстро развились, чтобы так успешно начать колонизацию всей планеты? Он удивляется, расписывая энтузиазм орхидей, крупнейший семьи цветковых растений.
Многие из этих пленительных цветы опыляются только с помощью одного видов насекомых и при этом разработали такие сложные приспособления для опыления, что трудно представить себе нечто более красивое.
Одна из орхидей даже выглядит, как пчела.

MediaInfo

Код:
General
Complete name : D:\ФИЛЬМЫ\Kingdom.of.Plants.2012.HDRip.andre90\Kingdom.of.Plants.Episode.1.Life.in.the.Wet.Zone.avi
Format : AVI
Format/Info : Audio Video Interleave
File size : 997 MiB
Duration : 52mn 27s
Overall bit rate : 2 656 Kbps
Movie name : Kingdom.of.Plants.Episode.1.Life.in.the.Wet.Zone
Director : Rip by andre90
Genre : Documentary
Writing application : VirtualDubMod 1.5.10.2 (build 2540/release)
Video
ID : 0
Format : MPEG-4 Visual
Format profile : Advanced Simple@L5
Format settings, BVOP : 1
Format settings, QPel : No
Format settings, GMC : No warppoints
Format settings, Matrix : Custom
Codec ID : XVID
Codec ID/Hint : XviD
Duration : 52mn 27s
Bit rate : 1 875 Kbps
Width : 720 pixels
Height : 400 pixels
Display aspect ratio : 16:9
Frame rate : 23.976 fps
Color space : YUV
Chroma subsampling : 4:2:0
Bit depth : 8 bits
Scan type : Progressive
Compression mode : Lossy
Bits/(Pixel*Frame) : 0.271
Stream size : 703 MiB (71%)
Writing library : XviD 1.2.1 (UTC 2008-12-04)
Audio #1
ID : 1
Format : AC-3
Format/Info : Audio Coding 3
Mode extension : CM (complete main)
Format settings, Endianness : Big
Codec ID : 2000
Duration : 52mn 27s
Bit rate mode : Constant
Bit rate : 384 Kbps
Channel(s) : 6 channels
Channel positions : Front: L C R, Side: L R, LFE
Sampling rate : 48.0 KHz
Bit depth : 16 bits
Compression mode : Lossy
Stream size : 144 MiB (14%)
Alignment : Split accross interleaves
Interleave, duration : 42 ms (1.00 video frame)
Interleave, preload duration : 500 ms
Title : Одноголосый закадровый В.Курдов
Audio #2
ID : 2
Format : AC-3
Format/Info : Audio Coding 3
Mode extension : CM (complete main)
Format settings, Endianness : Big
Codec ID : 2000
Duration : 52mn 27s
Bit rate mode : Constant
Bit rate : 384 Kbps
Channel(s) : 6 channels
Channel positions : Front: L C R, Side: L R, LFE
Sampling rate : 48.0 KHz
Bit depth : 16 bits
Compression mode : Lossy
Stream size : 144 MiB (14%)
Alignment : Split accross interleaves
Interleave, duration : 42 ms (1.00 video frame)
Interleave, preload duration : 500 ms
Title : Englisg

Скриншоты



Episode 2: Solving the Secrets / Раскрывая секреты

Продолжительность: 00:52:17
Описание: Дэвид использует новейшие 3D-технологии, чтобы исследовать мир за пределами наших человеческих чувств. Он начинает движение с "Тайной жизнью растений" и использует зловещие плотоядные растения, чтобы показать, насколько активными могут быть растения.
Пузырчатка (utricularia) (1) одна из самых известных среди прудовых жителей, свои ловушки захлопывает менее чем за одну миллисекунду.
Дэвид демонстрирует для нас, как с изменениями времен года, в разных временных масштабах, они изменяют свою жизнь в зависимости от времени года. Мы найдем насекомых скрыто связанными с растениями, как вредителями так и опылителями растений. Чувствительность к ультрафиолетовому излучению 3D камеры выявить невидимое альтер-эго растения и их завораживающую модель цветов; параллельные измерения причудливых цветов и потрясающие модели, посредством которых растения с ними общаться.
С помощью визуальных эффектов, Дэвид шагает в водовороте вихрей фабрик запахов растений, сигналы с которых неразрывно подключены к природному миру. И с помощью камертона, он демонстрирует, как растения и насекомые могут даже общаться с музыкой.
Как осень сады покрываются грибами, проявляя себя не как враги растений, но как их жизненно важные союзники. В грибной (2) атмосфере Кью, Дэвид обнаруживает образец, который имеет право контроля над разумом и другими, что живут под землей, где он вырос, чтобы быть настолько большим, что это может быть засчитано в качестве крупнейшего организма на планете. Он в 6 раз больше, чем сам сад Кью.
Дэвид делает вывод фильма в консерватории Принцессы Уэльской, где он встречает старого друга, великого Титана Арума. Восемь футов высотой (3), это самый большой цветок в мире и растение, что он помнит из съемок прошлой поездки на Суматре. С помощью тепла, чувствительных камер, Дэвид обнаруживает секрет Титан Арум (4), как он использует сочетание тепла и мощный запах, чтобы пробить дыру в многослойном воздухе тропического леса, что позволяет оповещать о своем присутствие на огромные расстояния.

MediaInfo

Код:
General
Complete name : D:\ФИЛЬМЫ\Kingdom.of.Plants.2012.HDRip.andre90\Kingdom.of.Plants.Episode.2.Solving.the.Secrets.avi
Format : AVI
Format/Info : Audio Video Interleave
File size : 996 MiB
Duration : 52mn 18s
Overall bit rate : 2 663 Kbps
Movie name : Kingdom.of.Plants.Episode.2.Solving.the.Secrets
Director : Rip by andre90
Genre : Documentary
Writing application : VirtualDubMod 1.5.10.2 (build 2540/release)
Video
ID : 0
Format : MPEG-4 Visual
Format profile : Advanced Simple@L5
Format settings, BVOP : 1
Format settings, QPel : No
Format settings, GMC : No warppoints
Format settings, Matrix : Custom
Codec ID : XVID
Codec ID/Hint : XviD
Duration : 52mn 18s
Bit rate : 1 881 Kbps
Width : 720 pixels
Height : 400 pixels
Display aspect ratio : 16:9
Frame rate : 23.976 fps
Color space : YUV
Chroma subsampling : 4:2:0
Bit depth : 8 bits
Scan type : Progressive
Compression mode : Lossy
Bits/(Pixel*Frame) : 0.272
Stream size : 704 MiB (71%)
Writing library : XviD 1.2.1 (UTC 2008-12-04)
Audio #1
ID : 1
Format : AC-3
Format/Info : Audio Coding 3
Mode extension : CM (complete main)
Format settings, Endianness : Big
Codec ID : 2000
Duration : 52mn 18s
Bit rate mode : Constant
Bit rate : 384 Kbps
Channel(s) : 6 channels
Channel positions : Front: L C R, Side: L R, LFE
Sampling rate : 48.0 KHz
Bit depth : 16 bits
Compression mode : Lossy
Stream size : 144 MiB (14%)
Alignment : Split accross interleaves
Interleave, duration : 42 ms (1.00 video frame)
Interleave, preload duration : 500 ms
Title : Одноголосый закадровый В.Курдов
Audio #2
ID : 2
Format : AC-3
Format/Info : Audio Coding 3
Mode extension : CM (complete main)
Format settings, Endianness : Big
Codec ID : 2000
Duration : 52mn 18s
Bit rate mode : Constant
Bit rate : 384 Kbps
Channel(s) : 6 channels
Channel positions : Front: L C R, Side: L R, LFE
Sampling rate : 48.0 KHz
Bit depth : 16 bits
Compression mode : Lossy
Stream size : 144 MiB (14%)
Alignment : Split accross interleaves
Interleave, duration : 42 ms (1.00 video frame)
Interleave, preload duration : 500 ms
Title : English

Скриншоты



Episode 3: Survival / Выживание

Продолжительность: 00:52:17
Описание: Дэвид обнаруживает растений, которые эволюционировали, чтобы разорвать свою зависимость от воды, дающую им возможность выжить в сухих средах.
История начинается в полночь в середине лета, когда Дэвид направляет свои шаги в консерваторию Принцессы Уэльской чтобы стать свидетелем внеочередного ночного цветения кактуса. Царица ночи, с ее гигантскими цветами, является центральным элементом потрясающей симфонии цветков кактусов, распахнувшихся в пустыне (и в Кью) на ночь. В гипнотической замедленной последовательности 3D, мы обнаруживаем прямую связь между кактусами и их природными опылителями: летучими мышами. Сцена изображает неповторимое великолепие 3D, как летучие мыши, кажется, вылетят из экрана в гостиной зрителей.
Когда солнце встает, Дэвид рассказывает о другом удивительном растении. Виде, многолетнего растения, Агава Францозини (5), которая неуклонно растет на протяжении более 50 лет и только достигнув размера телеграфного столба, которые буквально вырывается из крыше "Зеленого дома" в Кью, расцветает перед своей гибелью.
Раскрыть код стратегии выживания растений - это ключ к их защите в будущем. В Кью в пятидесяти милях к югу, на базе высоких технологий и долгосрочных решений построено здание. "Тысячелетний семенной банк" в Кью охарактеризованный, как страховой полис человечества, уже безопасно хранить 10% замороженных семян из Кью и имеет потенциал для хранения семян от подавляющего большинства прочих видов растений на планете, таким образом, сохранения растений от вымирания в будущем.

MediaInfo

Код:
General
Complete name : D:\ФИЛЬМЫ\Kingdom.of.Plants.2012.HDRip.andre90\Kingdom.of.Plants.Episode.3.Survival.avi
Format : AVI
Format/Info : Audio Video Interleave
File size : 996 MiB
Duration : 52mn 18s
Overall bit rate : 2 663 Kbps
Movie name : Kingdom.of.Plants.Episode.3.Survival
Director : Rip by andre90
Genre : Documentary
Writing application : VirtualDubMod 1.5.10.2 (build 2540/release)
Video
ID : 0
Format : MPEG-4 Visual
Format profile : Advanced Simple@L5
Format settings, BVOP : 1
Format settings, QPel : No
Format settings, GMC : No warppoints
Format settings, Matrix : Custom
Codec ID : XVID
Codec ID/Hint : XviD
Duration : 52mn 18s
Bit rate : 1 881 Kbps
Width : 720 pixels
Height : 400 pixels
Display aspect ratio : 16:9
Frame rate : 23.976 fps
Color space : YUV
Chroma subsampling : 4:2:0
Bit depth : 8 bits
Scan type : Progressive
Compression mode : Lossy
Bits/(Pixel*Frame) : 0.272
Stream size : 704 MiB (71%)
Writing library : XviD 1.2.1 (UTC 2008-12-04)
Audio #1
ID : 1
Format : AC-3
Format/Info : Audio Coding 3
Mode extension : CM (complete main)
Format settings, Endianness : Big
Codec ID : 2000
Duration : 52mn 18s
Bit rate mode : Constant
Bit rate : 384 Kbps
Channel(s) : 6 channels
Channel positions : Front: L C R, Side: L R, LFE
Sampling rate : 48.0 KHz
Bit depth : 16 bits
Compression mode : Lossy
Stream size : 144 MiB (14%)
Alignment : Split accross interleaves
Interleave, duration : 42 ms (1.00 video frame)
Interleave, preload duration : 500 ms
Title : Одноголосый закадровый В.Курдов
Audio #2
ID : 2
Format : AC-3
Format/Info : Audio Coding 3
Mode extension : CM (complete main)
Format settings, Endianness : Big
Codec ID : 2000
Duration : 52mn 18s
Bit rate mode : Constant
Bit rate : 384 Kbps
Channel(s) : 6 channels
Channel positions : Front: L C R, Side: L R, LFE
Sampling rate : 48.0 KHz
Bit depth : 16 bits
Compression mode : Lossy
Stream size : 144 MiB (14%)
Alignment : Split accross interleaves
Interleave, duration : 42 ms (1.00 video frame)
Interleave, preload duration : 500 ms
Title : English

Скриншоты




_________________
[Торрент-статистика]
[Профиль]  [ЛС] 
Показать сообщения:    
Ответить на тему

Текущее время: Сегодня 05:52

Часовой пояс: GMT + 4



Вы не можете начинать темы
Вы не можете отвечать на сообщения
Вы не можете редактировать свои сообщения
Вы не можете удалять свои сообщения
Вы не можете голосовать в опросах
Вы не можете прикреплять файлы к сообщениям
Вы не можете скачивать файлы