Чего не знают тигры [2012 г., WWF, документальный, DVDRip-AVC]

Ответить на тему
 
Автор
Сообщение

Dadhi ®

Стаж: 6 лет 10 месяцев

Сообщений: 38

Репутация: 38 [+] [-]

Пост 14-Июл-2012 11:53

[Цитировать] 

Чего не знают тигры
Год выпуска: 2012
Страна: Россия
Жанр: WWF, документальный
Продолжительность: 0:21:02
Описание: Документальный фильм Альберта Самойлова и Владимира Василиненко - рассказывает о жизни и проблемах заповедной территоррии дальневосточной тайги - Ради 20-минутной ленты, режиссёр и оператор в Приморье девять месяцев то карабкаются по южным склонам хребта Сихотэ-Алинь, то прыгают в холодную реку с водопадами.
-
http://www.youtube.com/watch?v=zNCikL_bju0
-
сценарий: Владимир Василиненко
режиссёр: Владимир Василиненко
оператор: Альберт Самойлов
видеомонтаж: Анна Самойлова
звукорежиссёр: Владимир Яичников
диктор: Сергей Лычёв
консультант: Владимир Андронов
Авторы фильма благодорят ЛИНДУ КЕРЛИ и МИХАИЛА БОРИСЕНКО (Лондонское экологическое общество) за предоставленные фотомататериалы
директор: Ольга Лескова
продюссер: Анна Самойлова
Все права на издание принадлежат ООО"Дальневосточная киностудия"
Фильм снят при государственной финансовой поддержке министерства культуры Российской Федерации--

MediaInfo

Format : MPEG-PS
File size : 1.41 GiB
Duration : 20mn 52s
Overall bit rate mode : Variable
Overall bit rate : 9 683 Kbps
Video
ID : 224 (0xE0)
Format : MPEG Video
Format version : Version 2
Format profile : Main@Main
Format settings, BVOP : Yes
Format settings, Matrix : Default
Duration : 20mn 52s
Bit rate mode : Variable
Bit rate : 9 234 Kbps
Maximum bit rate : 9 800 Kbps
Width : 720 pixels
Height : 576 pixels
Display aspect ratio : 4:3
Frame rate : 25.000 fps
Standard : PAL
Color space : YUV
Chroma subsampling : 4:2:0
Bit depth : 8 bits
Scan type : Interlaced
Scan order : Top Field First
Compression mode : Lossy
Bits/(Pixel*Frame) : 0.891
Stream size : 1.35 GiB (95%)
Color primaries : BT.470-2 System B, BT.470-2 System G
Transfer characteristics : BT.470-2 System B, BT.470-2 System G
Matrix coefficients : BT.470-2 System B, BT.470-2 System G
Audio
ID : 189 (0xBD)-128 (0x80)
Format : AC-3
Format/Info : Audio Coding 3
Mode extension : CM (complete main)
Muxing mode : DVD-Video
Duration : 20mn 52s
Bit rate mode : Constant
Bit rate : 256 Kbps
Channel(s) : 2 channels
Channel positions : Front: L R
Sampling rate : 48.0 KHz
Bit depth : 16 bits
Compression mode : Lossy
Delay relative to video : 24ms
Stream size : 38.2 MiB (3%)
Тип релиза: DVDRip-AVC
Контейнер: MPEG
Видео кодек: MPEG2
Аудио кодек: AC3 (Dolby Digital)
Видео: 720х576, 25.000 fps , Bit rate : 9 234 Kbps,
Аудио: 2 channels 48.0 KHz, AC-3

Скриншоты

[Торрент-статистика]
[Профиль]  [ЛС] 
Показать сообщения:    
Ответить на тему

Текущее время: Сегодня 12:33

Часовой пояс: GMT + 4



Вы не можете начинать темы
Вы не можете отвечать на сообщения
Вы не можете редактировать свои сообщения
Вы не можете удалять свои сообщения
Вы не можете голосовать в опросах
Вы не можете прикреплять файлы к сообщениям
Вы не можете скачивать файлы