Рай или забвение / Paradise or Oblivion (Роксанна Медоуз / Roxanne Meadows) [2012 г., документальный, DVDRip] MVO [Cтудия сmrecords.ru]

Ответить на тему
 
Автор
Сообщение

TiZAr ®

Пол:

Стаж: 7 лет 2 месяца

Сообщений: 826

Репутация: 1160 [+] [-]

Откуда: Россия

Пост 01-Мар-2014 04:15

[Цитировать] 

Рай или забвение / Paradise or Oblivion- Год выпуска: 2012
Страна: США / The Venus Project
Жанр: документальный
Продолжительность: 00:48:12
Перевод: Профессиональный (многоголосый, закадровый) [Cтудия сmrecords.ru]
Cубтитры: нет
Оригинальная аудиодорожка: нет
Режиссер: Роксанна Медоуз / Roxanne Meadows- -В ролях:
Жак Фреско, Роксанна Медоуз и др.
Описание:
Фильм раскрывает реальные причины искажения системы ценностей человека и губительные последствия, порожденные настоящей системой общества. Авторы проекта знакомят зрителя с ресурсоориентированной экономикой — новой социально-экономической моделью, которая построена на основе новейших технологий и последних научных разработок. Данная модель является результатом труда всей жизни изобретателя, инженера промышленного дизайна, специалиста по социальной инженерии, футуролога Жака Фреско.
Создатели фильма говорят о необходимости перехода от устаревших и неэффективных методов в политике, законотворчестве, бизнесе, и в любой другой форме власти к использованию научных методов и новейших технологий с целью удовлетворения потребностей всех людей на земле. Данный подход основывается не на мнениях отдельных политических деятелей, финансовой элиты или сторонников так называемой «демократии». Напротив, в его основе лежит цель — установление динамического равновесия с природой планеты и обеспечение изобилия для всего человечества.
Пресс-релиз:
  • Документальный фильм решает глобальную проблему государственного долга за 48 минут.
  • 30 марта 2012, Венус, штат Флорида, США.
  • Проект «Венера» представляет документальный фильм «Рай или забвение». Меньше чем за час министрам, президентам и другим политическим лидерам предлагается познакомиться с решениями проблемы растущего национального долга, а также навсегда покончить с нищетой, войнами, преступлениями и социальным неравенством.
  • Этот фильм не только раскрывает реальные причины основных глобальных проблем, но и рекомендует возможные шаги для их решения. «Рай или забвение» доступен для свободного просмотра в интернете и переведен более чем на 30 языков. Любому желающему предоставляется возможность познакомиться с фильмом, независимо от уровня дохода, расы, вероисповедания, цвета кожи или национальности.
  • «Рай или забвение» – это итог универсальных исследований, проведенных организацией проект «Венера» в течение 75 лет. Жак Фреско и Роксана Медоуз являются основателями и руководителями проекта. Основанный на данных антропологии человека, фильм охватывает практически все области науки и экономики, а также предлагает всеобъемлющий план по решению проблем нашей планеты, как для каждого в отдельности, так и для всех семи миллиардов ее жителей.-Этот документальный фильм является очередным шагом к цели проекта «Венера» по созданию полнометражной художественной картины, для которой в данный момент подыскиваются режиссер и сценарист.
-Официальный сайт проекта «Венера»-Все русские материалы по проекту «Венера»
Качество: DVDRip
Формат: AVI
Видео: MPEG4, XviD, 720x400 (16:9), 29.970 fps, 1 799 Kbps (0.208 bit/pixel)
Аудио: AC-3, 48.0 KHz, 2 ch, 192 Kbps, CBR

MI

Код:
General
Complete name                            : E:\downloads\Paradise_or_Oblivion.avi
Format                                   : AVI
Format/Info                              : Audio Video Interleave
File size                                : 690 MiB
Duration                                 : 48mn 11s
Overall bit rate                         : 2 003 Kbps
Writing application                      : VirtualDubMod 1.5.10.3 | www.virtualdub-fr.org || (build 2550/release)
Writing library                          : VirtualDubMod build 2550/release
Video
ID                                       : 0
Format                                   : MPEG-4 Visual
Format profile                           : Advanced Simple@L5
Format settings, BVOP                    : 2
Format settings, QPel                    : No
Format settings, GMC                     : No warppoints
Format settings, Matrix                  : Default (H.263)
Codec ID                                 : XVID
Codec ID/Hint                            : XviD
Duration                                 : 48mn 11s
Bit rate                                 : 1 799 Kbps
Width                                    : 720 pixels
Height                                   : 400 pixels
Display aspect ratio                     : 16:9
Frame rate                               : 29.970 fps
Color space                              : YUV
Chroma subsampling                       : 4:2:0
Bit depth                                : 8 bits
Scan type                                : Progressive
Compression mode                         : Lossy
Bits/(Pixel*Frame)                       : 0.208
Stream size                              : 620 MiB (90%)
Writing library                          : XviD 1.2.1 (UTC 2008-12-04)
Audio
ID                                       : 1
Format                                   : AC-3
Format/Info                              : Audio Coding 3
Mode extension                           : CM (complete main)
Format settings, Endianness              : Big
Codec ID                                 : 2000
Duration                                 : 48mn 11s
Bit rate mode                            : Constant
Bit rate                                 : 192 Kbps
Channel count                            : 2 channels
Channel positions                        : Front: L R
Sampling rate                            : 48.0 KHz
Bit depth                                : 16 bits
Compression mode                         : Lossy
Stream size                              : 66.2 MiB (10%)
Alignment                                : Split accross interleaves
Interleave, duration                     : 33 ms (1.00 video frame)
Interleave, preload duration             : 500 ms

Скриншоты



_________________
Не стоит обращать внимания на отсутствие сидов на моих раздачах. Все мои релизы мультитрекерные - нет сидов, включите DHT.
За релизами в HD качестве обращайтесь в личку, либо отписывайтесь в теме.
[Торрент-статистика]
[Профиль]  [ЛС] 
Показать сообщения:    
Ответить на тему

Текущее время: Сегодня 12:32

Часовой пояс: GMT + 4



Вы не можете начинать темы
Вы не можете отвечать на сообщения
Вы не можете редактировать свои сообщения
Вы не можете удалять свои сообщения
Вы не можете голосовать в опросах
Вы не можете прикреплять файлы к сообщениям
Вы не можете скачивать файлы