Курская битва. И плавилась броня [2013 г., Военный, Документальный, Исторический, TVRip]

Ответить на тему
 
Автор
Сообщение

3232fox ®

Пол:

Стаж: 7 лет 7 месяцев

Сообщений: 587

Репутация: 426 [+] [-]

Откуда: Крым,Россия

Пост 28-Июл-2013 00:22

[Цитировать] 

-Курская битва. И плавилась броня--Год выпуска: 2013
Страна: Россия
Жанр: Военный, Документальный, Исторический
Продолжительность: 00:49:49--Описание: Фильм Юрия Озерова. 70 лет Битве на Курской дуге. В основе фильма события, связанные с величайшим сражением под Курском: 50 дней и ночей непрерывной схватки. Четыре миллиона человек, шесть тысяч танков, четыре тысячи самолетов сошлись на узкой полосе выжженной земли длинной 500 километров. История сражения показана в фильме глазами ее участников: танкистов, летчиков, артиллеристов, пехоты, медсестер и генералов. А также мирных жителей, многие из которых внезапно оказались на линии огня и чудом остались жить.....--Тип релиза: SATRip
Контейнер: AVI
Видео кодек: XviD
Аудио кодек: MPEG Audio
Видео: MPEG-4 Visual, 720x480, 1699kbps, 25.0fps, XVID
Аудио: MPEG Audio, 48.0KHz, 128kbps, 1ch, MP3--

Скриншоты

MI

General
Complete name : G:\видео\Kurskaya.bitva.SATRip..avi
Format : AVI
Format/Info : Audio Video Interleave
File size : 655 MiB
Duration : 49mn 49s
Overall bit rate : 1 837 Kbps
Writing library : VirtualDub build 32507/release
Video
ID : 0
Format : MPEG-4 Visual
Format profile : Advanced Simple@L5
Format settings, BVOP : Yes
Format settings, QPel : No
Format settings, GMC : No warppoints
Format settings, Matrix : Default (H.263)
Muxing mode : Packed bitstream
Codec ID : XVID
Codec ID/Hint : XviD
Duration : 49mn 49s
Bit rate : 1 699 Kbps
Width : 720 pixels
Height : 480 pixels
Display aspect ratio : 3:2
Frame rate : 25.000 fps
Standard : NTSC
Color space : YUV
Chroma subsampling : 4:2:0
Bit depth : 8 bits
Scan type : Progressive
Compression mode : Lossy
Bits/(Pixel*Frame) : 0.197
Stream size : 606 MiB (93%)
Writing library : XviD 1.1.2 (UTC 2006-11-01)
Audio
ID : 1
Format : MPEG Audio
Format version : Version 1
Format profile : Layer 3
Codec ID : 55
Codec ID/Hint : MP3
Duration : 49mn 49s
Bit rate mode : Constant
Bit rate : 128 Kbps
Channel(s) : 1 channel
Sampling rate : 48.0 KHz
Compression mode : Lossy
Stream size : 45.6 MiB (7%)
Alignment : Split accross interleaves
Interleave, duration : 40 ms (1.00 video frame)
Interleave, preload duration : 500 ms
[Торрент-статистика]
[Профиль]  [ЛС] 
Показать сообщения:    
Ответить на тему

Текущее время: Сегодня 20:55

Часовой пояс: GMT + 4



Вы не можете начинать темы
Вы не можете отвечать на сообщения
Вы не можете редактировать свои сообщения
Вы не можете удалять свои сообщения
Вы не можете голосовать в опросах
Вы не можете прикреплять файлы к сообщениям
Вы не можете скачивать файлы