Александр Покрышкин (Альберт Гендельштейн) [1945 г., документальный, VHSRip]

Ответить на тему
 
Автор
Сообщение

ArtZak ®

Пол:

Стаж: 8 лет 11 месяцев

Сообщений: 2833

Репутация: 1366 [+] [-]

Откуда: Россия

Пост 02-Янв-2013 02:22

[Цитировать] 

Александр Покрышкин (В небе Покрышкин)
Год выпуска: 1945
Страна: СССР, ЦСДФ
Жанр: документальный
Продолжительность: 00:30:35
Режиссер: Альберт Гендельштейн
Описание:
Фильм-кинохроника о первом трижды Герое Советского Союза Александре Ивановиче Покрышкине и его соратниках-однополчанах. Содержит уникальные кадры А. Покрышкина в семейном кругу, в отпуске, по случаю награждения третьей Звездой Героя. А также интересные кадры кинохроники воздушных боев его авиадивизии в Германии.
Тип релиза: VHSRip
Контейнер: AVI
Видео кодек: DivX 5
Аудио кодек: MP3 (MPEG1 Layer 3)
Видео: MPEG4, DivX 5, 640x480 (4:3), 25.000 fps, 1 256 Kbps (0.164 bit/pixel)
Аудио: MP3, 24.0 KHz, 1 ch, 24.0 Kbps, CBR

Скриншоты:

MI

General
Complete name : D:\downloads\Aleksandr.Pokryshkin.1945.DivX.VHSRip.avi
Format : AVI
Format/Info : Audio Video Interleave
File size : 283 MiB
Duration : 30mn 35s
Overall bit rate : 1 293 Kbps
Writing application : MEncoder 1.0rc2-4.2.4
Writing library : MPlayer
Video
ID : 0
Format : MPEG-4 Visual
Format profile : Simple@L1
Format settings, BVOP : No
Format settings, QPel : No
Format settings, GMC : No warppoints
Format settings, Matrix : Default (H.263)
Codec ID : DX50
Codec ID/Hint : DivX 5
Duration : 30mn 35s
Bit rate : 1 256 Kbps
Width : 640 pixels
Height : 480 pixels
Display aspect ratio : 4:3
Frame rate : 25.000 fps
Color space : YUV
Chroma subsampling : 4:2:0
Bit depth : 8 bits
Scan type : Progressive
Compression mode : Lossy
Bits/(Pixel*Frame) : 0.164
Stream size : 275 MiB (97%)
Writing library : Lavc51.44.0
Audio
ID : 1
Format : MPEG Audio
Format version : Version 2
Format profile : Layer 3
Codec ID : 55
Codec ID/Hint : MP3
Duration : 30mn 34s
Bit rate mode : Constant
Bit rate : 24.0 Kbps
Channel(s) : 1 channel
Sampling rate : 24.0 KHz
Compression mode : Lossy
Stream size : 5.25 MiB (2%)
Alignment : Aligned on interleaves
Interleave, duration : 24 ms (0.60 video frame)
Interleave, preload duration : 504 ms
Раздача доступна по DHT
[Торрент-статистика]
[Профиль]  [ЛС] 

dolor7

Стаж: 8 лет 10 месяцев

Сообщений: 4

Репутация: 0 [+] [-]

Пост 15-Ноя-2016 15:38 (спустя 3 года 10 месяцев)

[Цитировать] 

It could not be more exciting. Great!
[Торрент-статистика]
[Профиль]  [ЛС] 
Показать сообщения:    
Ответить на тему

Текущее время: Сегодня 14:10

Часовой пояс: GMT + 4



Вы не можете начинать темы
Вы не можете отвечать на сообщения
Вы не можете редактировать свои сообщения
Вы не можете удалять свои сообщения
Вы не можете голосовать в опросах
Вы не можете прикреплять файлы к сообщениям
Вы не можете скачивать файлы