Самое странное оружие мира / Top Secret Weapons Revealed / Серии 1-6 из 6 (Макс Калхейн / Max Cuthane) [2012 г., документальный, оружие, история, IPTVRip] MVO

Ответить на тему
 
Автор
Сообщение

TiZAr ®

Пол:

Стаж: 7 лет 2 месяца

Сообщений: 827

Репутация: 1160 [+] [-]

Откуда: Россия

Пост 25-Фев-2014 03:13

[Цитировать] 

Самое странное оружие мира / Top Secret Weapons Revealed- Год выпуска: 2012
Страна: США / BBC Worldwide Digital Entertainment
Жанр: документальный, оружие, история
Сезон/Серия: сезон 1, серии 1-6 из 6
Продолжительность серии: ~00:50:00
Перевод: Профессиональный (одноголосный, закадровый)
Cубтитры: нет
Оригинальная аудиодорожка: нет
Режиссер: Макс Калхейн / Max Cuthane- -Описание:
Во время мировых войн Запад придумывал невероятные устройства для шпионажа и уничтожения врагов. Реактивный ранец, надувной резиновый самолёт, голубь с управляемой бомбой и даже кошка, подслушивающая врага. Это лишь часть странных идей, которые приходили в голову конструкторам. На Востоке тоже не спали. Огромный советский «Экраноплан»; самолет, несущий в нескольких сантиметрах над водой крылатые ракеты для удара по кораблям НАТО, и другие устройства должны были крепко потрепать мировой империализм. В сериале можно увидеть секретные кадры одних из самых необычных военных разработок когда-либо построенных. «Самое странное оружие мира» — это история того, как военная необходимость раздвинула границы изобретения до экстремального уровня.
Качество: IPTVRip
Формат: AVI
Видео кодек: XviD
Аудио кодек: MPEG (Layer 3)
Видео: MPEG4, XviD, 720x400 (16:9), 24.000 fps, 1 499 Kbps (0.217 bit/pixel)
Аудио: MP3, 48.0 KHz, 2 ch, 128 Kbps, CBR

MI

Код:
General
Complete name                            : Strannoe.oruzhie.(1.serija.iz.6).Sekretnoe.oruzhie.desanta.2012.DivX.IPTVRip.alf62.avi
Format                                   : AVI
Format/Info                              : Audio Video Interleave
File size                                : 566 MiB
Duration                                 : 48mn 10s
Overall bit rate                         : 1 644 Kbps
Video
ID                                       : 0
Format                                   : MPEG-4 Visual
Format profile                           : Simple@L3
Format settings, BVOP                    : No
Format settings, QPel                    : No
Format settings, GMC                     : No warppoints
Format settings, Matrix                  : Default (H.263)
Codec ID                                 : XVID
Codec ID/Hint                            : XviD
Duration                                 : 48mn 10s
Bit rate                                 : 1 499 Kbps
Width                                    : 720 pixels
Height                                   : 400 pixels
Display aspect ratio                     : 16:9
Frame rate                               : 24.000 fps
Color space                              : YUV
Chroma subsampling                       : 4:2:0
Bit depth                                : 8 bits
Scan type                                : Progressive
Compression mode                         : Lossy
Bits/(Pixel*Frame)                       : 0.217
Stream size                              : 516 MiB (91%)
Writing library                          : XviD 1.2.1 (UTC 2008-12-04)
Audio
ID                                       : 1
Format                                   : MPEG Audio
Format version                           : Version 1
Format profile                           : Layer 3
Mode                                     : Joint stereo
Mode extension                           : MS Stereo
Codec ID                                 : 55
Codec ID/Hint                            : MP3
Duration                                 : 48mn 10s
Bit rate mode                            : Constant
Bit rate                                 : 128 Kbps
Channel count                            : 2 channels
Sampling rate                            : 48.0 KHz
Compression mode                         : Lossy
Stream size                              : 44.1 MiB (8%)
Alignment                                : Aligned on interleaves
Interleave, duration                     : 24 ms (0.58 video frame)
Writing library                          : LAME3.98.2

Скриншоты


_________________
Не стоит обращать внимания на отсутствие сидов на моих раздачах. Все мои релизы мультитрекерные - нет сидов, включите DHT.
За релизами в HD качестве обращайтесь в личку, либо отписывайтесь в теме.
[Торрент-статистика]
[Профиль]  [ЛС] 
Показать сообщения:    
Ответить на тему

Текущее время: Сегодня 02:20

Часовой пояс: GMT + 4



Вы не можете начинать темы
Вы не можете отвечать на сообщения
Вы не можете редактировать свои сообщения
Вы не можете удалять свои сообщения
Вы не можете голосовать в опросах
Вы не можете прикреплять файлы к сообщениям
Вы не можете скачивать файлы